Брестская крепость | 2010 | BDRip-HEVC (1080p) - KORSAR Одобрено администрацией

Участники
  • Раздают6
  • Качают0
  • Просмотров90
  • Скачали4
  • Комментариев0
  • Список файлов1
Залил раздачу
Поблагодарить
Никто
Характеристики
Вес12.41 GB (13,320,417,883)
Залит2020-05-08 17:39:28 Обновлено2020-05-08 17:42:22
Сетевая Нет
   https://a.radikal.ru/a20/1803/8d/0323a36ccadd.gif
Чтобы скачать, необходимо авторизоваться или зарегистрироваться.
Статус: Одобрено администрацией
Хотите видеть детали Раздачи пройдите авторизацию или регистрацию!

Спасибо за понимание...
Просьба отключить блокировщики рекламы на странице скриншотов по адресу: http://3.lostpic.net/, этим Вы поможете существованию проекта. Заранее спасибо!
x265 [info]: frame I:   1851, Avg QP:18.24  kb/s: 31394.76
x265 [info]: frame P:  34769, Avg QP:19.36  kb/s: 19252.56
x265 [info]: frame B: 162557, Avg QP:21.52  kb/s: 10469.84
x265 [info]: consecutive B-frames: 6.8% 1.3% 2.7% 23.0% 13.8% 35.4% 6.2% 4.2% 1.9% 0.8% 0.8% 1.1% 0.3% 0.5% 0.2% 0.8% 0.1%

General
Unique ID                   : 214794846042776476257615585867527589275 (0xA197FB8AFA511E3B3C89512C579F8D9B)
Complete name               : H:\HEVC4\Брестская крепость (2010) BDRip-HEVC 1080p - KORSAR.mkv
Format                      : Matroska
Format version              : Version 4 / Version 2
File size                   : 12.4 GiB
Duration                    : 2 h 18 min
Overall bit rate            : 12.8 Mb/s
Movie name                  : Брестская крепость (2010)_rip_by_Cthulhu
Encoded date                : UTC 2020-05-07 15:34:35
Writing application         : mkvmerge v37.0.0 ('Leave It') 64-bit
Writing library             : libebml v1.3.9 + libmatroska v1.5.2
Cover                       : Yes
Attachments                 : cover6.jpg

Video
ID                          : 1
Format                      : HEVC
Format/Info                 : High Efficiency Video Coding
Format profile              : Main 10@L4.1@High
Codec ID                    : V_MPEGH/ISO/HEVC
Duration                    : 2 h 18 min
Bit rate                    : 12.2 Mb/s
Width                       : 1 920 pixels
Height                      : 816 pixels
Display aspect ratio        : 2.35:1
Frame rate mode             : Constant
Frame rate                  : 24.000 FPS
Color space                 : YUV
Chroma subsampling          : 4:2:0
Bit depth                   : 10 bits
Bits/(Pixel*Frame)          : 0.324
Stream size                 : 11.8 GiB (95%)
Writing library             : x265 3.3+2-gbe2d82093:[Windows][GCC 10.0.1][64 bit] 10bit
Encoding settings           : cpuid=1111039 / frame-threads=4 / numa-pools=16 / wpp / no-pmode / no-pme / no-psnr / no-ssim / log-level=2 / input-csp=1 / input-res=1920x816 / interlace=0 / total-frames=199177 / level-idc=41 / high-tier=1 / uhd-bd=0 / ref=5 / no-allow-non-conformance / no-repeat-headers / annexb / no-aud / no-hrd / info / hash=0 / no-temporal-layers / open-gop / min-keyint=23 / keyint=240 / gop-lookahead=0 / bframes=16 / b-adapt=2 / b-pyramid / bframe-bias=0 / rc-lookahead=60 / lookahead-slices=1 / scenecut=40 / hist-scenecut=0 / radl=0 / no-splice / no-intra-refresh / ctu=32 / min-cu-size=8 / rect / amp / max-tu-size=32 / tu-inter-depth=4 / tu-intra-depth=4 / limit-tu=1 / rdoq-level=2 / dynamic-rd=0.00 / no-ssim-rd / signhide / no-tskip / nr-intra=0 / nr-inter=0 / no-constrained-intra / no-strong-intra-smoothing / max-merge=5 / limit-refs=3 / limit-modes / me=3 / subme=7 / merange=57 / temporal-mvp / no-frame-dup / hme / Level / merange / L0,L1,L2=16,32,57 / weightp / weightb / no-analyze-src-pics / deblock=-2:-2 / no-sao / no-sao-non-deblock / rd=6 / selective-sao=0 / no-early-skip / rskip / rskip-edge-threshold=0.050000 / no-fast-intra / no-tskip-fast / no-cu-lossless / b-intra / no-splitrd-skip / rdpenalty=0 / psy-rd=1.60 / psy-rdoq=0.50 / no-rd-refine / no-lossless / cbqpoffs=0 / crqpoffs=0 / rc=crf / crf=19.5 / qcomp=0.67 / qpstep=4 / stats-write=0 / stats-read=0 / vbv-maxrate=50000 / vbv-bufsize=50000 / vbv-init=0.9 / crf-max=0.0 / crf-min=0.0 / ipratio=1.40 / pbratio=1.30 / aq-mode=1 / aq-strength=1.00 / no-cutree / zone-count=0 / no-strict-cbr / qg-size=32 / no-rc-grain / qpmax=69 / qpmin=0 / no-const-vbv / sar=1 / overscan=0 / videoformat=5 / range=0 / colorprim=1 / transfer=1 / colormatrix=1 / chromaloc=0 / display-window=0 / cll=0,0 / min-luma=0 / max-luma=1023 / log2-max-poc-lsb=8 / vui-timing-info / vui-hrd-info / slices=1 / no-opt-qp-pps / no-opt-ref-list-length-pps / no-multi-pass-opt-rps / scenecut-bias=0.05 / hist-threshold=0.01 / no-opt-cu-delta-qp / no-aq-motion / no-hdr10 / no-hdr10-opt / no-dhdr10-opt / no-idr-recovery-sei / analysis-reuse-level=0 / analysis-save-reuse-level=0 / analysis-load-reuse-level=0 / scale-factor=0 / refine-intra=0 / refine-inter=0 / refine-mv=1 / refine-ctu-distortion=0 / no-limit-sao / ctu-info=0 / no-lowpass-dct / refine-analysis-type=0 / copy-pic=1 / max-ausize-factor=1.0 / no-dynamic-refine / no-single-sei / no-hevc-aq / no-svt / no-field / qp-adaptation-range=1.00 / no-scenecut-aware-qpconformance-window-offsets / right=0 / bottom=0
Language                    : Russian
Default                     : Yes
Forced                      : No
Color range                 : Limited
Color primaries             : BT.709
Transfer characteristics    : BT.709
Matrix coefficients         : BT.709

Audio
ID                          : 2
Format                      : AC-3
Format/Info                 : Audio Coding 3
Commercial name             : Dolby Digital
Codec ID                    : A_AC3
Duration                    : 2 h 18 min
Bit rate mode               : Constant
Bit rate                    : 640 kb/s
Channel(s)                  : 6 channels
Channel layout              : L R C LFE Ls Rs
Sampling rate               : 48.0 kHz
Frame rate                  : 31.250 FPS (1536 SPF)
Bit depth                   : 16 bits
Compression mode            : Lossy
Stream size                 : 633 MiB (5%)
Language                    : Russian
Service kind                : Complete Main
Default                     : Yes
Forced                      : No

Text
ID                          : 3
Format                      : UTF-8
Codec ID                    : S_TEXT/UTF8
Codec ID/Info               : UTF-8 Plain Text
Duration                    : 2 h 12 min
Bit rate                    : 22 b/s
Count of elements           : 593
Stream size                 : 22.2 KiB (0%)
Language                    : English
Default                     : No
Forced                      : No

Menu
00:00:00.000                : ru:01 Городской Парк, 1941
00:11:06.000                : ru:02 Слухи о войне
00:21:40.000                : ru:03 03:58 22 июня 1941
00:31:29.000                : ru:04 Крепость. Волынское укрепление
00:44:08.000                : ru:05 Спасение людей из госпиталя
01:00:52.541                : ru:06 Первое немецкое отступление
01:15:30.000                : ru:07 24 июня
01:25:48.000                : ru:08 Доставка приказа
01:33:54.000                : ru:09 Массовый побег
01:44:01.000                : ru:10 Аня и Катя
02:04:28.333                : ru:11 Выживание
02:13:46.000                : ru:12 Заключительные титры
https://img11.lostpic.net/2020/05/07/410c07d37ae46bbda12544f5a0b5f433.th.png https://img11.lostpic.net/2020/05/07/67218bcd982026507603a8fc3a9b91e1.th.png https://img11.lostpic.net/2020/05/07/e3d4123604801f529bc5cde5f2f2726b.th.png https://img11.lostpic.net/2020/05/07/32f51e89780946af8b0ca9b546ba5ef8.th.png https://img11.lostpic.net/2020/05/07/e5813c59870e3d86c8edf7860c4f1dce.th.png https://img11.lostpic.net/2020/05/07/6a1445692d314faf0108dbde150e5e77.th.png https://img11.lostpic.net/2020/05/07/070c26e0089477a33c48ce45ef95543c.th.png https://img11.lostpic.net/2020/05/07/eafc2a8bca61dd40323d2eb44c4c9c31.th.png https://img11.lostpic.net/2020/05/07/55f6a8d5f9c2015fbca43f6aabad2143.th.png https://img11.lostpic.net/2020/05/07/9bc8eb4e42453ce5ff1de52912230be8.th.png https://img11.lostpic.net/2020/05/07/55b0821879ad5d1f2d9fb1f1e8f725a6.th.png https://img11.lostpic.net/2020/05/07/db2c7a304b2afd1d01b010cb2483e46a.th.png  
http://korsar.tv/images/Banner-Korsar.gif http://korsar.tv/img/VKontakte.png  


Привет, гость
- Запомнить
Регистрация
Информация

Торрент трекер ExKinoRay.TV

Здесь вы можете скачать новые фильмы, сериалы, игры, музыку, софт и многое другое. Большая скорость скачивания на мультитрекерных раздачах. Всё абсолютно бесплатно.