Жажда | 1959 | DVDRip (AVC) - KORSAR Одобрено администрацией

Участники
  • Раздают2
  • Качают1
  • Просмотров32
  • Скачали4
  • Комментариев0
  • Список файлов1
Залил раздачу
Поблагодарить
Никто
Характеристики
Вес1.53 GB (1,641,658,043)
Залит2020-05-09 19:27:56 Обновлено2020-05-09 19:29:58
Сетевая Нет
   https://a.radikal.ru/a20/1803/8d/0323a36ccadd.gif
Чтобы скачать, необходимо авторизоваться или зарегистрироваться.
Статус: Одобрено администрацией
Хотите видеть детали Раздачи пройдите авторизацию или регистрацию!

Спасибо за понимание...
Просьба отключить блокировщики рекламы на странице скриншотов по адресу: http://3.lostpic.net/, этим Вы поможете существованию проекта. Заранее спасибо!
x264 [info]: frame I:541   Avg QP:16.90  size: 56918
x264 [info]: frame P:25434 Avg QP:18.72  size: 30616
x264 [info]: frame B:87148 Avg QP:20.77  size:  8291
x264 [info]: consecutive B-frames:  1.9%  2.3%  8.2% 23.1% 21.9% 39.8%  2.4%  0.4%  0.1%  0.0%  0.0%

General
Unique ID                   : 215219494501490486741008107783593375631 (0xA1E9C4540EF7DF535CDB51B25333B78F)
Complete name               : S:\FILMS\Жажда (1959) DVDRip-AVC  - KORSAR.mkv
Format                      : Matroska
Format version              : Version 4 / Version 2
File size                   : 1.53 GiB
Duration                    : 1 h 15 min
Overall bit rate            : 2 902 kb/s
Movie name                  : Жажда (1959)_rip_by_Cthulhu
Encoded date                : UTC 2020-05-08 21:51:43
Writing application         : mkvmerge v37.0.0 ('Leave It') 64-bit
Writing library             : libebml v1.3.9 + libmatroska v1.5.2
Cover                       : Yes
Attachments                 : cover8.jpg

Video
ID                          : 1
Format                      : AVC
Format/Info                 : Advanced Video Codec
Format profile              : High@L4.1
Format settings             : CABAC / 16 Ref Frames
Format settings, CABAC      : Yes
Format settings, ReFrames   : 16 frames
Codec ID                    : V_MPEG4/ISO/AVC
Duration                    : 1 h 15 min
Bit rate                    : 2 709 kb/s
Width                       : 700 pixels
Height                      : 572 pixels
Display aspect ratio        : 4:3
Original display aspect rat : 4:3
Frame rate mode             : Constant
Frame rate                  : 25.000 FPS
Color space                 : YUV
Chroma subsampling          : 4:2:0
Bit depth                   : 8 bits
Scan type                   : Progressive
Bits/(Pixel*Frame)          : 0.271
Stream size                 : 1.43 GiB (93%)
Writing library             : x264 core 152 r2851kMod ba24899
Encoding settings           : cabac=1 / ref=16 / deblock=1:-1:-1 / analyse=0x3:0x133 / me=umh / subme=11 / psy=1 / fade_compensate=0.00 / psy_rd=1.05:0.08 / mixed_ref=1 / me_range=48 / chroma_me=1 / trellis=2 / 8x8dct=1 / cqm=0 / deadzone=21,11 / fast_pskip=0 / chroma_qp_offset=-3 / threads=18 / lookahead_threads=4 / sliced_threads=0 / nr=0 / decimate=1 / interlaced=0 / bluray_compat=0 / constrained_intra=0 / bframes=10 / b_pyramid=2 / b_adapt=2 / b_bias=0 / direct=3 / weightb=1 / open_gop=0 / weightp=2 / keyint=250 / keyint_min=25 / scenecut=40 / intra_refresh=0 / rc=crf / mbtree=0 / crf=17.7000 / qcomp=0.60 / qpmin=0 / qpmax=39 / qpstep=4 / ip_ratio=1.40 / pb_ratio=1.30 / aq=2:1.00
Language                    : Russian
Default                     : Yes
Forced                      : No
Color range                 : Limited
Color primaries             : BT.601 PAL
Transfer characteristics    : BT.470 System B/G
Matrix coefficients         : BT.470 System B/G

Audio
ID                          : 2
Format                      : AC-3
Format/Info                 : Audio Coding 3
Commercial name             : Dolby Digital
Codec ID                    : A_AC3
Duration                    : 1 h 15 min
Bit rate mode               : Constant
Bit rate                    : 192 kb/s
Channel(s)                  : 2 channels
Channel layout              : L R
Sampling rate               : 48.0 kHz
Frame rate                  : 31.250 FPS (1536 SPF)
Bit depth                   : 16 bits
Compression mode            : Lossy
Stream size                 : 104 MiB (7%)
Language                    : Russian
Service kind                : Complete Main
Default                     : Yes
Forced                      : No
https://img11.lostpic.net/2020/05/09/8e3f8a4379aeb1d0b9741ce69e5d5e0c.th.png https://img11.lostpic.net/2020/05/09/a89212492566a0a49a926a2b4cc87e13.th.png https://img11.lostpic.net/2020/05/09/546136658a615c97c31ddd8920cbd36d.th.png https://img11.lostpic.net/2020/05/09/97e14b2b586bb1fba55f6986782afb89.th.png https://img11.lostpic.net/2020/05/09/4abafae61edd9d0a42ba9528f4fc67be.th.png https://img11.lostpic.net/2020/05/09/44cc3185114487d6d12c13aa5c511713.th.png  
http://korsar.tv/images/Banner-Korsar.gif http://korsar.tv/img/VKontakte.png  


Привет, гость
- Запомнить
Регистрация
Информация

Торрент трекер ExKinoRay.TV

Здесь вы можете скачать новые фильмы, сериалы, игры, музыку, софт и многое другое. Большая скорость скачивания на мультитрекерных раздачах. Всё абсолютно бесплатно.