Влюблен по собственному желанию | 1982 | WEB-DLRip (720p) | - KORSAR Одобрено администрацией

Участники
  • Раздают1
  • Качают0
  • Просмотров60
  • Скачали1
  • Комментариев0
  • Список файлов1
Залил раздачу
Поблагодарить
Характеристики
Вес3.87 GB (4,151,313,521)
Залит2020-05-21 01:47:27 Обновлено2020-05-21 01:48:03
Сетевая Нет
   https://a.radikal.ru/a20/1803/8d/0323a36ccadd.gif
Чтобы скачать, необходимо авторизоваться или зарегистрироваться.
Статус: Одобрено администрацией
Хотите видеть детали Раздачи пройдите авторизацию или регистрацию!

Спасибо за понимание...
Просьба отключить блокировщики рекламы на странице скриншотов по адресу: http://3.lostpic.net/, этим Вы поможете существованию проекта. Заранее спасибо!
x264 [info]: frame I:641   Avg QP:17.31  size:181139x264 [info]: frame P:29891 Avg QP:18.73  size: 82866x264 [info]: frame B:95015 Avg QP:21.16  size: 14696x264 [info]: consecutive B-frames:  4.3%  2.7%  9.5% 12.4% 20.2% 46.3%  4.2%  0.3%  0.0%  0.0%  0.0%Общее
Уникальный идентификатор                 : 189301187381697071489598505958917189675 (0x8E6A152098EFA81D966B925A829AB02B)
Полное имя                               : D:\Влюблен по собственному желанию_1983-WEBRip 720p_KORSAR.mkv
Формат                                   : Matroska
Версия формата                           : Version 2
Размер файла                             : 3,87 Гбайт
Продолжительность                        : 1 ч. 23 м.
Общий поток                              : 6 613 Кбит/сек
Название фильма                          : Влюблен по собственному желанию_1983-WEBRip 720p_KORSAR
Дата кодирования                         : UTC 2020-05-15 16:51:39
Программа кодирования                    : mkvmerge v5.8.0 ('No Sleep / Pillow') built on Sep  2 2012 15:37:04
Библиотека кодирования                   : libebml v1.2.3 + libmatroska v1.3.0

Видео
Идентификатор                            : 1
Формат                                   : AVC
Формат/Информация                        : Advanced Video Codec
Профиль формата                          : High@L4.1
Настройки формата                        : CABAC / 9 Ref Frames
Параметр CABAC формата                   : Да
Параметр RefFrames формата               : 9 кадров
Идентификатор кодека                     : V_MPEG4/ISO/AVC
Продолжительность                        : 1 ч. 23 м.
Битрейт                                  : 6 225 Кбит/сек
Ширина                                   : 1 280 пикселей
Высота                                   : 720 пикселей
Соотношение сторон                       : 16:9
Режим частоты кадров                     : Постоянный
Частота кадров                           : 25,000 кадров/сек
Цветовое пространство                    : YUV
Субдискретизация насыщенности            : 4:2:0
Битовая глубина                          : 8 бит
Тип развёртки                            : Прогрессивная
Бит/(Пиксели*Кадры)                      : 0.270
Размер потока                            : 3,64 Гбайт (94%)
Библиотека кодирования                   : x264 core 152 r2851kMod ba24899
Настройки программы                      : cabac=1 / ref=9 / deblock=1:-2:-2 / analyse=0x3:0x113 / me=umh / subme=10 / psy=1 / fade_compensate=0.00 / psy_rd=1.05:0.10 / mixed_ref=1 / me_range=48 / chroma_me=1 / trellis=2 / 8x8dct=1 / cqm=0 / deadzone=21,11 / fast_pskip=1 / chroma_qp_offset=-3 / threads=4 / lookahead_threads=1 / sliced_threads=0 / nr=0 / decimate=1 / interlaced=0 / bluray_compat=0 / constrained_intra=0 / bframes=10 / b_pyramid=2 / b_adapt=2 / b_bias=0 / direct=1 / weightb=1 / open_gop=0 / weightp=2 / keyint=250 / keyint_min=25 / scenecut=40 / intra_refresh=0 / rc_lookahead=40 / rc=crf / mbtree=0 / crf=17.7000 / qcomp=0.63 / qpmin=0 / qpmax=33 / qpstep=4 / vbv_maxrate=50000 / vbv_bufsize=62500 / crf_max=0.0 / nal_hrd=none / filler=0 / ip_ratio=1.40 / pb_ratio=1.30 / aq=2:0.80
Язык                                     : English
Default                                  : Да
Forced                                   : Нет
Цветовой диапазон                        : Limited
Основные цвета                           : BT.709
Характеристики трансфера                 : BT.709
Коэффициенты матрицы                     : BT.709
Duration_Source                          : General_Duration

Аудио
Идентификатор                            : 2
Формат                                   : AC-3
Формат/Информация                        : Audio Coding 3
Коммерческое название                    : Dolby Digital
Идентификатор кодека                     : A_AC3
Продолжительность                        : 1 ч. 23 м.
Вид битрейта                             : Постоянный
Битрейт                                  : 256 Кбит/сек
Каналы                                   : 2 канала
Channel layout                           : L R
Частота                                  : 48,0 КГц
Частота кадров                           : 31,250 кадров/сек (1536 SPF)
Метод сжатия                             : С потерями
Размер потока                            : 153 Мбайт (4%)
Язык                                     : Russian
Service kind                             : Complete Main
Default                                  : Да
Forced                                   : Нет
Duration_Source                          : General_Duration


https://img11.lostpic.net/2020/05/15/4e4f0401b08b386dbb496ccdc32699c6.th.png https://img11.lostpic.net/2020/05/15/0f8c86d130ea0404bad0476255e894e4.th.png https://img11.lostpic.net/2020/05/15/62729c28bbe7daa117d5aa8a49ae37a8.th.png https://img11.lostpic.net/2020/05/15/0a3f31c72c23d441cad08dca122d4e29.th.png https://img11.lostpic.net/2020/05/15/690e7eafd4c5c31d66c1b7ceaab2bb61.th.png https://img11.lostpic.net/2020/05/15/c0cd68cb8aeb0fdee001fdaf0366a83e.th.png https://img11.lostpic.net/2020/05/15/3a84c6c9fa5f30aa182ad5f8c8db1b2e.th.png  
http://korsar.tv/images/Banner-Korsar.gif http://korsar.tv/img/VKontakte.png  


Привет, гость
- Запомнить
Регистрация
Информация

Торрент трекер ExKinoRay.TV

Здесь вы можете скачать новые фильмы, сериалы, игры, музыку, софт и многое другое. Большая скорость скачивания на мультитрекерных раздачах. Всё абсолютно бесплатно.