Здравствуй и прощай | 1972 | WEBRip (720р) - KORSAR Одобрено администрацией

Участники
  • Раздают2
  • Качают0
  • Просмотров37
  • Скачали0
  • Комментариев0
  • Список файлов1
Залил раздачу
Поблагодарить
Никто
Характеристики
Вес5.08 GB (5,458,378,781)
Залит2020-05-31 19:31:19 Обновлено2020-05-31 19:34:33
Сетевая Нет
   https://a.radikal.ru/a20/1803/8d/0323a36ccadd.gif
Чтобы скачать, необходимо авторизоваться или зарегистрироваться.
Статус: Одобрено администрацией
Хотите видеть детали Раздачи пройдите авторизацию или регистрацию!

Спасибо за понимание...
Просьба отключить блокировщики рекламы на странице скриншотов по адресу: http://3.lostpic.net/, этим Вы поможете существованию проекта. Заранее спасибо!
x264 [info]: frame I:629   Avg QP:17.83  size:161419x264 [info]: frame P:31542 Avg QP:19.46  size: 89349x264 [info]: frame B:103323 Avg QP:21.54  size: 23298x264 [info]: consecutive B-frames:  1.5%  3.7%  7.1% 31.4% 24.8% 29.6%  1.5%  0.4%  0.0%  0.0%  0.0%Общее
Уникальный идентификатор                 : 240595727051646947784668219227509434792 (0xB5010D308C5E5F969B415E4041E929A8)
Полное имя                               : D:\Здравствуй и прощай_1972-WEBRip 720р_KORSAR.mkv
Формат                                   : Matroska
Версия формата                           : Version 2
Размер файла                             : 5,08 Гбайт
Продолжительность                        : 1 ч. 30 м.
Общий поток                              : 8 057 Кбит/сек
Название фильма                          : Здравствуй и прощай_1972-WEBRip 720р_KORSAR
Дата кодирования                         : UTC 2020-05-18 01:55:13
Программа кодирования                    : mkvmerge v5.8.0 ('No Sleep / Pillow') built on Sep  2 2012 15:37:04
Библиотека кодирования                   : libebml v1.2.3 + libmatroska v1.3.0

Видео
Идентификатор                            : 1
Формат                                   : AVC
Формат/Информация                        : Advanced Video Codec
Профиль формата                          : High@L4.1
Настройки формата                        : CABAC / 11 Ref Frames
Параметр CABAC формата                   : Да
Параметр RefFrames формата               : 11 кадров
Идентификатор кодека                     : V_MPEG4/ISO/AVC
Продолжительность                        : 1 ч. 30 м.
Битрейт                                  : 7 705 Кбит/сек
Ширина                                   : 994 пикселя
Высота                                   : 720 пикселей
Соотношение сторон                       : 1,381
Режим частоты кадров                     : Постоянный
Частота кадров                           : 25,000 кадров/сек
Цветовое пространство                    : YUV
Субдискретизация насыщенности            : 4:2:0
Битовая глубина                          : 8 бит
Тип развёртки                            : Прогрессивная
Бит/(Пиксели*Кадры)                      : 0.431
Размер потока                            : 4,86 Гбайт (96%)
Библиотека кодирования                   : x264 core 152 r2851kMod ba24899
Настройки программы                      : cabac=1 / ref=11 / deblock=1:-2:-2 / analyse=0x3:0x113 / me=umh / subme=10 / psy=1 / fade_compensate=0.00 / psy_rd=1.05:0.10 / mixed_ref=1 / me_range=48 / chroma_me=1 / trellis=2 / 8x8dct=1 / cqm=0 / deadzone=21,11 / fast_pskip=1 / chroma_qp_offset=-3 / threads=4 / lookahead_threads=1 / sliced_threads=0 / nr=0 / decimate=1 / interlaced=0 / bluray_compat=0 / constrained_intra=0 / bframes=10 / b_pyramid=2 / b_adapt=2 / b_bias=0 / direct=1 / weightb=1 / open_gop=0 / weightp=2 / keyint=250 / keyint_min=25 / scenecut=40 / intra_refresh=0 / rc_lookahead=40 / rc=crf / mbtree=0 / crf=17.2000 / qcomp=0.63 / qpmin=0 / qpmax=33 / qpstep=4 / vbv_maxrate=50000 / vbv_bufsize=62500 / crf_max=0.0 / nal_hrd=none / filler=0 / ip_ratio=1.40 / pb_ratio=1.30 / aq=1:0.90
Язык                                     : English
Default                                  : Да
Forced                                   : Нет
Цветовой диапазон                        : Limited
Основные цвета                           : BT.709
Характеристики трансфера                 : BT.709
Коэффициенты матрицы                     : BT.709
Duration_Source                          : General_Duration

Аудио
Идентификатор                            : 2
Формат                                   : AC-3
Формат/Информация                        : Audio Coding 3
Коммерческое название                    : Dolby Digital
Идентификатор кодека                     : A_AC3
Продолжительность                        : 1 ч. 30 м.
Вид битрейта                             : Постоянный
Битрейт                                  : 192 Кбит/сек
Каналы                                   : 2 канала
Channel layout                           : L R
Частота                                  : 48,0 КГц
Частота кадров                           : 31,250 кадров/сек (1536 SPF)
Метод сжатия                             : С потерями
Размер потока                            : 124 Мбайт (2%)
Язык                                     : Russian
Service kind                             : Complete Main
Default                                  : Да
Forced                                   : Нет
Duration_Source                          : General_Duration

Текст
Идентификатор                            : 3
Формат                                   : UTF-8
Идентификатор кодека                     : S_TEXT/UTF8
Идентификатор кодека/Информация          : UTF-8 Plain Text
Язык                                     : Russian
Default                                  : Нет
Forced                                   : Нет

Меню
00:00:00.000                             : en:Chapter 1
00:00:26.400                             : en:Chapter 2
00:03:15.600                             : en:Chapter 3
00:05:07.480                             : en:Chapter 4
00:13:17.760                             : en:Chapter 5
00:17:46.320                             : en:Chapter 6
00:26:33.480                             : en:Chapter 7
00:32:43.800                             : en:Chapter 8
00:42:37.680                             : en:Chapter 9
00:54:05.680                             : en:Chapter 10
01:01:45.760                             : en:Chapter 11
01:07:28.600                             : en:Chapter 12
01:22:33.440                             : en:Chapter 13
https://img11.lostpic.net/2020/05/18/ffa109780ab176555800f76bbdee5b91.th.png https://img11.lostpic.net/2020/05/18/9bf8a69ef1ee1f236ef512633ce58edd.th.png https://img11.lostpic.net/2020/05/18/4e48ca4c47f33429987ea0df1ce463da.th.png https://img11.lostpic.net/2020/05/18/bd0b860787c330bd19028daf3a4ba9e1.th.png https://img11.lostpic.net/2020/05/18/b807124f8f8ca3a7e18b1c68fa75e1b8.th.png https://img11.lostpic.net/2020/05/18/bcd16d0de401c10527ac707a6bc82b28.th.png https://img11.lostpic.net/2020/05/18/618d79603bf88a3e42d68c8d8f164539.th.png https://img11.lostpic.net/2020/05/18/8ea82001d553a7008cd6379c5cd3ce9d.th.png https://img11.lostpic.net/2020/05/18/b38c2e36aa132a53115224794bc148a3.th.png https://img11.lostpic.net/2020/05/18/eac3122eb314562246136113bc812cc6.th.png https://img11.lostpic.net/2020/05/18/2b2a31231c055f0a869837145dc368ac.th.png https://img11.lostpic.net/2020/05/18/dd0fc52a5b7f9f7f9ad5423122d64527.th.png https://img11.lostpic.net/2020/05/18/d5e6a7f231ba18b2dd2e12e3eef6cba3.th.png https://img11.lostpic.net/2020/05/18/027bd777b0321b1ca5ff6f49bfa269ad.th.png https://img11.lostpic.net/2020/05/18/e4dad6e4a9452e75dcc15c34e4b0aa22.th.png https://img11.lostpic.net/2020/05/18/4128f075f22419c6eefacf6345e7a59a.th.png https://img11.lostpic.net/2020/05/18/9c3f00c4914b3e1686c4973c8f94c450.th.png  


Привет, гость
- Запомнить
Регистрация
Информация

Торрент трекер ExKinoRay.TV

Здесь вы можете скачать новые фильмы, сериалы, игры, музыку, софт и многое другое. Большая скорость скачивания на мультитрекерных раздачах. Всё абсолютно бесплатно.