Полицейские и воры | 1997 | DVDRip (AVC) - KORSAR Одобрено администрацией

Участники
  • Раздают3
  • Качают0
  • Просмотров47
  • Скачали2
  • Комментариев0
  • Список файлов1
Залил раздачу
Поблагодарить
Никто
Характеристики
Вес1.81 GB (1,938,953,793)
Залит2020-06-01 00:58:41 Обновлено2020-06-01 02:36:51
Сетевая Нет
   https://a.radikal.ru/a20/1803/8d/0323a36ccadd.gif
Чтобы скачать, необходимо авторизоваться или зарегистрироваться.
Статус: Одобрено администрацией
Хотите видеть детали Раздачи пройдите авторизацию или регистрацию!

Спасибо за понимание...
Просьба отключить блокировщики рекламы на странице скриншотов по адресу: http://3.lostpic.net/, этим Вы поможете существованию проекта. Заранее спасибо!
x264 [info]: frame I:863   Avg QP:15.26  size: 86408
x264 [info]: frame P:35945 Avg QP:17.40  size: 31208
x264 [info]: frame B:105520 Avg QP:20.53  size:  5730
x264 [info]: consecutive B-frames:  4.2%  3.8% 10.5% 25.0% 22.1% 29.8%  3.1%  1.1%  0.2%  0.1%  0.1%

General
Unique ID                   : 303416253597768880134385175058010675036 (0xE443D8478CEB3FD55E239080D969175C)
Complete name               : S:\FILMS\Полицейские и воры (1997) DVDRip-AVC  - KORSAR.mkv
Format                      : Matroska
Format version              : Version 4 / Version 2
File size                   : 1.81 GiB
Duration                    : 1 h 34 min
Overall bit rate            : 2 725 kb/s
Movie name                  : Полицейские и воры (1997)_rip_by_Cthulhu
Encoded date                : UTC 2020-05-20 17:07:47
Writing application         : mkvmerge v46.0.0 ('No Deeper Escape') 64-bit
Writing library             : libebml v1.3.10 + libmatroska v1.5.2
Cover                       : Yes
Attachments                 : cover12.jpg

Video
ID                          : 1
Format                      : AVC
Format/Info                 : Advanced Video Codec
Format profile              : High@L4.1
Format settings             : CABAC / 15 Ref Frames
Format settings, CABAC      : Yes
Format settings, ReFrames   : 15 frames
Codec ID                    : V_MPEG4/ISO/AVC
Duration                    : 1 h 34 min
Bit rate                    : 2 531 kb/s
Width                       : 696 pixels
Height                      : 560 pixels
Display aspect ratio        : 4:3
Original display aspect rat : 4:3
Frame rate mode             : Constant
Frame rate                  : 25.000 FPS
Color space                 : YUV
Chroma subsampling          : 4:2:0
Bit depth                   : 8 bits
Scan type                   : Progressive
Bits/(Pixel*Frame)          : 0.260
Stream size                 : 1.68 GiB (93%)
Writing library             : x264 core 152 r2851kMod ba24899
Encoding settings           : cabac=1 / ref=15 / deblock=1:-2:-2 / analyse=0x3:0x133 / me=umh / subme=10 / psy=1 / fade_compensate=0.00 / psy_rd=1.00:0.10 / mixed_ref=1 / me_range=32 / chroma_me=1 / trellis=2 / 8x8dct=1 / cqm=0 / deadzone=21,11 / fast_pskip=0 / chroma_qp_offset=-3 / threads=17 / lookahead_threads=4 / sliced_threads=0 / nr=0 / decimate=1 / interlaced=0 / bluray_compat=0 / constrained_intra=0 / bframes=10 / b_pyramid=2 / b_adapt=2 / b_bias=0 / direct=3 / weightb=1 / open_gop=0 / weightp=2 / keyint=250 / keyint_min=25 / scenecut=40 / intra_refresh=0 / rc_lookahead=60 / rc=crf / mbtree=0 / crf=16.5000 / qcomp=0.60 / qpmin=0 / qpmax=39 / qpstep=4 / vbv_maxrate=50000 / vbv_bufsize=62500 / crf_max=0.0 / nal_hrd=none / filler=0 / ip_ratio=1.40 / pb_ratio=1.30 / aq=2:1.00
Language                    : Russian
Default                     : Yes
Forced                      : No
Color range                 : Limited
Color primaries             : BT.601 PAL
Transfer characteristics    : BT.470 System B/G
Matrix coefficients         : BT.470 System B/G

Audio
ID                          : 2
Format                      : AC-3
Format/Info                 : Audio Coding 3
Commercial name             : Dolby Digital
Codec ID                    : A_AC3
Duration                    : 1 h 34 min
Bit rate mode               : Constant
Bit rate                    : 192 kb/s
Channel(s)                  : 2 channels
Channel layout              : L R
Sampling rate               : 48.0 kHz
Frame rate                  : 31.250 FPS (1536 SPF)
Bit depth                   : 16 bits
Compression mode            : Lossy
Stream size                 : 130 MiB (7%)
Language                    : Russian
Service kind                : Complete Main
Default                     : Yes
Forced                      : No

Menu
00:00:00.000                : en:Chapter 1
00:05:11.560                : en:Chapter 2
00:11:30.800                : en:Chapter 3
00:19:13.520                : en:Chapter 4
00:27:56.080                : en:Chapter 5
00:32:35.000                : en:Chapter 6
00:39:12.760                : en:Chapter 7
00:52:17.560                : en:Chapter 8
00:59:17.400                : en:Chapter 9
01:06:43.520                : en:Chapter 10
01:10:40.880                : en:Chapter 11
01:26:15.400                : en:Chapter 12
https://img11.lostpic.net/2020/05/20/a930b69e17b26a4649d3b1fbd70bf99a.th.png https://img11.lostpic.net/2020/05/20/91597f62a1c4b6ba6c6ea190637d599d.th.png https://img11.lostpic.net/2020/05/20/98afab7576d99c8735048d472992145e.th.png https://img11.lostpic.net/2020/05/20/c659878114c8bbe15070453c29be1f75.th.png https://img11.lostpic.net/2020/05/20/9720c1ddc0b0bb7eba6182d665257905.th.png  
http://korsar.tv/images/Banner-Korsar.gif http://korsar.tv/img/VKontakte.png  


Привет, гость
- Запомнить
Регистрация
Информация

Торрент трекер ExKinoRay.TV

Здесь вы можете скачать новые фильмы, сериалы, игры, музыку, софт и многое другое. Большая скорость скачивания на мультитрекерных раздачах. Всё абсолютно бесплатно.