Маленький лорд Фаунтлерой | Little Lord Fauntleroy | 1980 | BDRip (1080p) | - KORSAR Одобрено администрацией

Участники
  • Раздают2
  • Качают0
  • Просмотров75
  • Скачали0
  • Комментариев0
  • Список файлов1
Залил раздачу
Поблагодарить
Характеристики
Вес14.15 GB (15,194,023,473)
Залит2020-06-17 14:20:32 Обновлено2020-06-17 14:37:02
Сетевая Нет
   https://a.radikal.ru/a20/1803/8d/0323a36ccadd.gif
Чтобы скачать, необходимо авторизоваться или зарегистрироваться.
Статус: Одобрено администрацией
Хотите видеть детали Раздачи пройдите авторизацию или регистрацию!

Спасибо за понимание...
Просьба отключить блокировщики рекламы на странице скриншотов по адресу: http://3.lostpic.net/, этим Вы поможете существованию проекта. Заранее спасибо!
x264 [info]: fram I:1077  Avg QP:18.48  size:362609x264 [info]: frame P:28101 Avg QP:19.87  size:221528x264 [info]: frame B:119463 Avg QP:22.20  size: 64703x264 [info]: consecutive B-frames:  1.1%  0.6%  4.5% 10.2% 15.1% 58.7%  8.1%  0.9%  0.5%  0.1%  0.0%  0.0%Общее
Уникальный идентификатор                 : 214201242417856526993759028874210161625 (0xA125A89FE4362303BD3ECF9BCD33B3D9)
Полное имя                               : D:\Маленький лорд Фаунтлерой_1980-BDRip 1080p_KORSAR.mkv
Формат                                   : Matroska
Версия формата                           : Version 2
Размер файла                             : 14,2 Гбайт
Продолжительность                        : 1 ч. 39 м.
Режим общего битрейта                    : Переменный
Общий поток                              : 20,4 Мбит/сек
Название фильма                          : Маленький лорд Фаунтлерой_1980-BDRip 1080p_KORSAR
Дата кодирования                         : UTC 2020-06-11 22:13:54
Программа кодирования                    : mkvmerge v5.8.0 ('No Sleep / Pillow') built on Sep  2 2012 15:37:04
Библиотека кодирования                   : libebml v1.2.3 + libmatroska v1.3.0

Видео
Идентификатор                            : 1
Формат                                   : AVC
Формат/Информация                        : Advanced Video Codec
Профиль формата                          : High@L4.1
Настройки формата                        : CABAC / 4 Ref Frames
Параметр CABAC формата                   : Да
Параметр RefFrames формата               : 4 кадра
Идентификатор кодека                     : V_MPEG4/ISO/AVC
Продолжительность                        : 1 ч. 39 м.
Ширина                                   : 1 920 пикселей
Высота                                   : 1 080 пикселей
Соотношение сторон                       : 16:9
Режим частоты кадров                     : Постоянный
Частота кадров                           : 25,000 кадров/сек
Цветовое пространство                    : YUV
Субдискретизация насыщенности            : 4:2:0
Битовая глубина                          : 8 бит
Тип развёртки                            : Прогрессивная
Библиотека кодирования                   : x264 core 152 r2851kMod ba24899
Настройки программы                      : cabac=1 / ref=4 / deblock=1:-2:-2 / analyse=0x3:0x113 / me=umh / subme=10 / psy=1 / fade_compensate=0.00 / psy_rd=0.95:0.05 / mixed_ref=1 / me_range=40 / chroma_me=1 / trellis=2 / 8x8dct=1 / cqm=0 / deadzone=21,11 / fast_pskip=1 / chroma_qp_offset=-3 / threads=2 / lookahead_threads=1 / sliced_threads=0 / nr=0 / decimate=1 / interlaced=0 / bluray_compat=0 / constrained_intra=0 / bframes=11 / b_pyramid=2 / b_adapt=2 / b_bias=0 / direct=1 / weightb=1 / open_gop=0 / weightp=2 / keyint=250 / keyint_min=25 / scenecut=40 / intra_refresh=0 / rc_lookahead=40 / rc=crf / mbtree=0 / crf=17.5000 / qcomp=0.63 / qpmin=0 / qpmax=33 / qpstep=4 / vbv_maxrate=50000 / vbv_bufsize=62500 / crf_max=0.0 / nal_hrd=none / filler=0 / ip_ratio=1.40 / pb_ratio=1.30 / aq=1:0.70
Язык                                     : English
Default                                  : Да
Forced                                   : Нет
Цветовой диапазон                        : Limited
Основные цвета                           : BT.709
Характеристики трансфера                 : BT.709
Коэффициенты матрицы                     : BT.709
Duration_Source                          : General_Duration

Аудио #1
Идентификатор                            : 2
Формат                                   : AC-3
Формат/Информация                        : Audio Coding 3
Коммерческое название                    : Dolby Digital
Идентификатор кодека                     : A_AC3
Продолжительность                        : 1 ч. 39 м.
Вид битрейта                             : Постоянный
Битрейт                                  : 192 Кбит/сек
Каналы                                   : 2 канала
Channel layout                           : L R
Частота                                  : 48,0 КГц
Частота кадров                           : 31,250 кадров/сек (1536 SPF)
Метод сжатия                             : С потерями
Размер потока                            : 136 Мбайт (1%)
Язык                                     : Russian
Service kind                             : Complete Main
Default                                  : Да
Forced                                   : Нет
Statistics Tags Issue                    : mkvmerge v43.0.0 ('The Quartermaster') 64-bit 2020-04-06 08:21:38 / mkvmerge v5.8.0 ('No Sleep / Pillow') built on Sep  2 2012 15:37:04 2020-06-11 22:13:54
FromStats_BitRate                        : 192000
FromStats_Duration                       : 01:39:05.664000000
FromStats_FrameCount                     : 185802
FromStats_StreamSize                     : 142695936
Duration_Source                          : General_Duration

Аудио #2
Идентификатор                            : 3
Формат                                   : AC-3
Формат/Информация                        : Audio Coding 3
Коммерческое название                    : Dolby Digital
Идентификатор кодека                     : A_AC3
Продолжительность                        : 1 ч. 39 м.
Вид битрейта                             : Постоянный
Битрейт                                  : 192 Кбит/сек
Каналы                                   : 2 канала
Channel layout                           : L R
Частота                                  : 48,0 КГц
Частота кадров                           : 31,250 кадров/сек (1536 SPF)
Метод сжатия                             : С потерями
Размер потока                            : 136 Мбайт (1%)
Язык                                     : Russian
Service kind                             : Complete Main
Default                                  : Нет
Forced                                   : Нет
Statistics Tags Issue                    : mkvmerge v43.0.0 ('The Quartermaster') 64-bit 2020-04-06 08:21:38 / mkvmerge v5.8.0 ('No Sleep / Pillow') built on Sep  2 2012 15:37:04 2020-06-11 22:13:54
FromStats_BitRate                        : 192000
FromStats_Duration                       : 01:39:05.664000000
FromStats_FrameCount                     : 185802
FromStats_StreamSize                     : 142695936
Duration_Source                          : General_Duration

Аудио #3
Идентификатор                            : 4
Формат                                   : FLAC
Формат/Информация                        : Free Lossless Audio Codec
Идентификатор кодека                     : A_FLAC
Продолжительность                        : 1 ч. 39 м.
Вид битрейта                             : Переменный
Каналы                                   : 2 канала
Channel layout                           : L R
Частота                                  : 48,0 КГц
Битовая глубина                          : 24 бит
Метод сжатия                             : Без потерь
Библиотека кодирования                   : libFLAC 20080709 (UTC 2008-07-09)
Язык                                     : English
Default                                  : Нет
Forced                                   : Нет
Statistics Tags Issue                    : mkvmerge v43.0.0 ('The Quartermaster') 64-bit 2020-04-06 08:21:38 / mkvmerge v5.8.0 ('No Sleep / Pillow') built on Sep  2 2012 15:37:04 2020-06-11 22:13:54
FromStats_BitRate                        : 755249
FromStats_Duration                       : 01:39:05.640000000
FromStats_FrameCount                     : 69676
FromStats_StreamSize                     : 561305396
Duration_Source                          : General_Duration

https://img10.lostpic.net/2020/06/12/7144e39710c9e93a070cc658d0ca2a03.th.png https://img10.lostpic.net/2020/06/12/f72c9f50a13a0f9fc98c7834a81d003d.th.png https://img10.lostpic.net/2020/06/12/a158490e453cec19868e7174aafb9ff3.th.png https://img10.lostpic.net/2020/06/12/77a5515087b850e982345d7ecfbe5cb2.th.png https://img10.lostpic.net/2020/06/12/68f7902316d8fe0ea4f16df766cc3cd0.th.png https://img10.lostpic.net/2020/06/12/40ecfa9b4a6e3855417f37f147b2b12f.th.png https://img10.lostpic.net/2020/06/12/d0b7c015419ecaf1e43a274ea71051b0.th.png https://img10.lostpic.net/2020/06/12/615de5306554c87504b0d82f6b42b3c5.th.png  
http://korsar.tv/images/Banner-Korsar.gif http://korsar.tv/img/VKontakte.png  


Привет, гость
- Запомнить
Регистрация
Информация

Торрент трекер ExKinoRay.TV

Здесь вы можете скачать новые фильмы, сериалы, игры, музыку, софт и многое другое. Большая скорость скачивания на мультитрекерных раздачах. Всё абсолютно бесплатно.