Частные уроки | Private Lessons | 1981 | BDRip (720р) | - KORSAR Одобрено администрацией

Участники
  • Раздают1
  • Качают0
  • Просмотров86
  • Скачали2
  • Комментариев0
  • Список файлов1
Залил раздачу
Поблагодарить
Никто
Характеристики
Вес7.02 GB (7,536,420,567)
Залит2020-06-24 17:21:14 Обновлено2020-06-24 17:27:05
Сетевая Нет
   https://a.radikal.ru/a20/1803/8d/0323a36ccadd.gif
Чтобы скачать, необходимо авторизоваться или зарегистрироваться.
Статус: Одобрено администрацией
Хотите видеть детали Раздачи пройдите авторизацию или регистрацию!

Спасибо за понимание...
Просьба отключить блокировщики рекламы на странице скриншотов по адресу: http://3.lostpic.net/, этим Вы поможете существованию проекта. Заранее спасибо!
     x264 [info]: frame I:762 Avg QP:16.54 size:176128
    x264 [info]: frame P:24094 Avg QP:18.05 size:105640
    x264 [info]: frame B:100809 Avg QP:20.36 size: 42340
    x264 [info]: consecutive B-frames: 1.1% 1.6% 4.8% 10.2% 17.0% 52.3% 6.6% 0.9% 2.6% 1.5% 1.1% 0.3%

Общее
Уникальный идентификатор : 181611562428811347599197300180633996960 (0x88A11D58944098D79346A318E5AB4EA0)
Полное имя : G:\Частные уроки_1981-BDRip 720p_KORSAR.mkv
Формат : Matroska
Версия формата : Version 2
Размер файла : 7,02 Гбайт
Продолжительность : 1 ч. 27 м.
Общий поток : 11,5 Мбит/сек
Название фильма : Частные уроки_1981-BDRip 720p_KORSAR
Дата кодирования : UTC 2020-06-15 11:57:45
Программа кодирования : mkvmerge v5.8.0 ('No Sleep / Pillow') built on Sep 2 2012 15:37:04
Библиотека кодирования : libebml v1.2.3 + libmatroska v1.3.0

Видео
Идентификатор : 1
Формат : AVC
Формат/Информация : Advanced Video Codec
Профиль формата : High@L4.1
Настройки формата : CABAC / 9 Ref Frames
Параметр CABAC формата : Да
Параметр RefFrames формата : 9 кадров
Идентификатор кодека : V_MPEG4/ISO/AVC
Продолжительность : 1 ч. 27 м.
Битрейт : 10,4 Мбит/сек
Ширина : 1 278 пикселей
Высота : 716 пикселей
Соотношение сторон : 16:9
Режим частоты кадров : Постоянный
Частота кадров : 23,976 (24000/1001) кадра/сек
Цветовое пространство : YUV
Субдискретизация насыщенности : 4:2:0
Битовая глубина : 8 бит
Тип развёртки : Прогрессивная
Бит/(Пиксели*Кадры) : 0.473
Размер потока : 6,33 Гбайт (90%)
Библиотека кодирования : x264 core 152 r2851kMod ba24899
Настройки программы : cabac=1 / ref=9 / deblock=1:-2:-2 / analyse=0x3:0x113 / me=umh / subme=10 / psy=1 / fade_compensate=0.00 / psy_rd=1.05:0.10 / mixed_ref=1 / me_range=48 / chroma_me=1 / trellis=2 / 8x8dct=1 / cqm=0 / deadzone=21,11 / fast_pskip=1 / chroma_qp_offset=-3 / threads=12 / lookahead_threads=3 / sliced_threads=0 / nr=0 / decimate=1 / interlaced=0 / bluray_compat=0 / constrained_intra=0 / bframes=11 / b_pyramid=2 / b_adapt=2 / b_bias=0 / direct=1 / weightb=1 / open_gop=0 / weightp=2 / keyint=240 / keyint_min=23 / scenecut=40 / intra_refresh=0 / rc=crf / mbtree=0 / crf=18.0000 / qcomp=0.63 / qpmin=0 / qpmax=30 / qpstep=4 / ip_ratio=1.40 / pb_ratio=1.30 / aq=2:0.80
Язык : English
Default : Да
Forced : Нет
Цветовой диапазон : Limited
Основные цвета : BT.709
Характеристики трансфера : BT.709
Коэффициенты матрицы : BT.709
Duration_Source : General_Duration

Аудио #1
Идентификатор : 2
Формат : AC-3
Формат/Информация : Audio Coding 3
Коммерческое название : Dolby Digital
Идентификатор кодека : A_AC3
Продолжительность : 1 ч. 27 м.
Вид битрейта : Постоянный
Битрейт : 256 Кбит/сек
Каналы : 2 канала
Channel layout : L R
Частота : 48,0 КГц
Частота кадров : 31,250 кадров/сек (1536 SPF)
Метод сжатия : С потерями
Размер потока : 160 Мбайт (2%)
Заголовок : Гаврилов
Язык : Russian
Service kind : Complete Main
Default : Нет
Forced : Нет
Duration_Source : General_Duration

Аудио #2
Идентификатор : 3
Формат : AC-3
Формат/Информация : Audio Coding 3
Коммерческое название : Dolby Digital
Идентификатор кодека : A_AC3
Продолжительность : 1 ч. 27 м.
Вид битрейта : Постоянный
Битрейт : 192 Кбит/сек
Каналы : 2 канала
Channel layout : L R
Частота : 48,0 КГц
Частота кадров : 31,250 кадров/сек (1536 SPF)
Метод сжатия : С потерями
Размер потока : 120 Мбайт (2%)
Заголовок : Живов
Язык : Russian
Service kind : Complete Main
Default : Да
Forced : Нет
Duration_Source : General_Duration

Аудио #3
Идентификатор : 4
Формат : AC-3
Формат/Информация : Audio Coding 3
Коммерческое название : Dolby Digital
Идентификатор кодека : A_AC3
Продолжительность : 1 ч. 27 м.
Вид битрейта : Постоянный
Битрейт : 448 Кбит/сек
Каналы : 6 каналов
Channel layout : L R C LFE Ls Rs
Частота : 48,0 КГц
Частота кадров : 31,250 кадров/сек (1536 SPF)
Метод сжатия : С потерями
Размер потока : 280 Мбайт (4%)
Заголовок : English
Язык : English
Service kind : Complete Main
Default : Нет
Forced : Нет
Duration_Source : General_Duration

Текст #1
Идентификатор : 5
Формат : UTF-8
Идентификатор кодека : S_TEXT/UTF8
Идентификатор кодека/Информация : UTF-8 Plain Text
Заголовок : На не переведённые места Живова
Язык : Russian
Default : Да
Forced : Нет

Текст #2
Идентификатор : 6
Формат : UTF-8
Идентификатор кодека : S_TEXT/UTF8
Идентификатор кодека/Информация : UTF-8 Plain Text
Заголовок : eng
Язык : English
Default : Нет
Forced : Нет

Меню
00:00:00.000 : en:00:00:00.000
00:05:13.063 : en:00:05:13.063
00:08:28.133 : en:00:08:28.133
00:12:31.000 : en:00:12:31.000
00:17:52.405 : en:00:17:52.405
00:21:52.770 : en:00:21:52.770
00:28:13.525 : en:00:28:13.525
00:37:44.762 : en:00:37:44.762
00:44:35.840 : en:00:44:35.840
00:51:32.756 : en:00:51:32.756
01:00:17.072 : en:01:00:17.072
01:06:52.091 : en:01:06:52.091
01:13:15.349 : en:01:13:15.349
01:19:22.341 : en:01:19:22.341
01:24:59.219 : en:01:24:59.219
https://img12.lostpic.net/2020/06/15/f5cd3c68a2bb97a761048f8b8b78d1a8.th.png https://img12.lostpic.net/2020/06/15/7ea15b4a87f621d1d08013b75c75a751.th.png https://img12.lostpic.net/2020/06/15/be888b3c8c910eaf66197e6c8d2c21c8.th.png https://img12.lostpic.net/2020/06/15/17f6dff711257628613adcc0abecd33a.th.png https://img12.lostpic.net/2020/06/15/e38f10b6c2db835de06e73d01feb99cc.th.png https://img12.lostpic.net/2020/06/15/326b4e2ffef7e111267b8196121bcbc1.th.png https://img12.lostpic.net/2020/06/15/d8ea59bdecff788363813c3c10eb454f.th.png https://img12.lostpic.net/2020/06/15/a8f9c54dd2a06deb66a7da326e8c84fa.th.png  
http://korsar.tv/images/Banner-Korsar.gif http://korsar.tv/img/VKontakte.png  


Привет, гость
- Запомнить
Регистрация
Информация

Торрент трекер ExKinoRay.TV

Здесь вы можете скачать новые фильмы, сериалы, игры, музыку, софт и многое другое. Большая скорость скачивания на мультитрекерных раздачах. Всё абсолютно бесплатно.