Польская свадьба | Польская красавица | Polish Wedding | 1998 | DVDRip (AVC) | - KORSAR Одобрено администрацией

Участники
  • Раздают2
  • Качают3
  • Просмотров50
  • Скачали1
  • Комментариев0
  • Список файлов1
Залил раздачу
Поблагодарить
Характеристики
Вес1.83 GB (1,967,583,125)
Залит2020-06-24 17:22:15 Обновлено2020-06-24 17:23:12
Сетевая Нет
   https://a.radikal.ru/a20/1803/8d/0323a36ccadd.gif
Чтобы скачать, необходимо авторизоваться или зарегистрироваться.
Статус: Одобрено администрацией
Хотите видеть детали Раздачи пройдите авторизацию или регистрацию!

Спасибо за понимание...
Просьба отключить блокировщики рекламы на странице скриншотов по адресу: http://3.lostpic.net/, этим Вы поможете существованию проекта. Заранее спасибо!
x264 [info]: frame I:944   Avg QP:16.09  size: 62942x264 [info]: frame P:32931 Avg QP:17.74  size: 22272x264 [info]: frame B:118194 Avg QP:20.57  size:  4572x264 [info]: consecutive B-frames:  1.7%  2.4%  8.8% 17.0% 23.1% 39.5%  4.4%  1.6%  0.6%  0.4%  0.2%  0.3%Общее
Уникальный идентификатор                 : 239551179682043815867599534530817030316 (0xB437E107363966A38225D04735F9F8AC)
Полное имя                               : D:\Польская свадьба_1998-DVDRip-AVC_KORSAR.mkv
Формат                                   : Matroska
Версия формата                           : Version 2
Размер файла                             : 1,83 Гбайт
Продолжительность                        : 1 ч. 41 м.
Общий поток                              : 2 588 Кбит/сек
Название фильма                          : Польская свадьба_1998-DVDRip-AVC_KORSAR
Дата кодирования                         : UTC 2020-06-16 17:15:23
Программа кодирования                    : mkvmerge v5.8.0 ('No Sleep / Pillow') built on Sep  2 2012 15:37:04
Библиотека кодирования                   : libebml v1.2.3 + libmatroska v1.3.0

Видео
Идентификатор                            : 1
Формат                                   : AVC
Формат/Информация                        : Advanced Video Codec
Профиль формата                          : High@L4.1
Настройки формата                        : CABAC / 14 Ref Frames
Параметр CABAC формата                   : Да
Параметр RefFrames формата               : 14 кадров
Идентификатор кодека                     : V_MPEG4/ISO/AVC
Продолжительность                        : 1 ч. 41 м.
Битрейт                                  : 1 704 Кбит/сек
Ширина                                   : 720 пикселей
Высота                                   : 548 пикселей
Соотношение сторон                       : 1,85:1
Режим частоты кадров                     : Постоянный
Частота кадров                           : 25,000 кадров/сек
Цветовое пространство                    : YUV
Субдискретизация насыщенности            : 4:2:0
Битовая глубина                          : 8 бит
Тип развёртки                            : Прогрессивная
Бит/(Пиксели*Кадры)                      : 0.173
Размер потока                            : 1,21 Гбайт (66%)
Библиотека кодирования                   : x264 core 152 r2851kMod ba24899
Настройки программы                      : cabac=1 / ref=14 / deblock=1:-2:-2 / analyse=0x3:0x133 / me=umh / subme=10 / psy=1 / fade_compensate=0.00 / psy_rd=1.05:0.10 / mixed_ref=1 / me_range=48 / chroma_me=1 / trellis=2 / 8x8dct=1 / cqm=0 / deadzone=21,11 / fast_pskip=1 / chroma_qp_offset=-3 / threads=12 / lookahead_threads=3 / sliced_threads=0 / nr=0 / decimate=1 / interlaced=0 / bluray_compat=0 / constrained_intra=0 / bframes=11 / b_pyramid=2 / b_adapt=2 / b_bias=0 / direct=1 / weightb=1 / open_gop=0 / weightp=2 / keyint=250 / keyint_min=25 / scenecut=40 / intra_refresh=0 / rc=crf / mbtree=0 / crf=17.5000 / qcomp=0.63 / qpmin=0 / qpmax=30 / qpstep=4 / ip_ratio=1.40 / pb_ratio=1.30 / aq=2:0.90
Язык                                     : English
Default                                  : Да
Forced                                   : Нет
Цветовой диапазон                        : Limited
Основные цвета                           : BT.601 PAL
Характеристики трансфера                 : BT.470 System B/G
Коэффициенты матрицы                     : BT.470 System B/G
Duration_Source                          : General_Duration

Аудио #1
Идентификатор                            : 2
Формат                                   : AC-3
Формат/Информация                        : Audio Coding 3
Коммерческое название                    : Dolby Digital
Идентификатор кодека                     : A_AC3
Продолжительность                        : 1 ч. 41 м.
Вид битрейта                             : Постоянный
Битрейт                                  : 192 Кбит/сек
Каналы                                   : 2 канала
Channel layout                           : L R
Частота                                  : 48,0 КГц
Частота кадров                           : 31,250 кадров/сек (1536 SPF)
Метод сжатия                             : С потерями
Размер потока                            : 139 Мбайт (7%)
Заголовок                                : MVO
Язык                                     : Russian
Service kind                             : Complete Main
Default                                  : Да
Forced                                   : Нет
Duration_Source                          : General_Duration

Аудио #2
Идентификатор                            : 3
Формат                                   : AC-3
Формат/Информация                        : Audio Coding 3
Коммерческое название                    : Dolby Digital
Идентификатор кодека                     : A_AC3
Продолжительность                        : 1 ч. 41 м.
Вид битрейта                             : Постоянный
Битрейт                                  : 192 Кбит/сек
Каналы                                   : 2 канала
Channel layout                           : L R
Частота                                  : 48,0 КГц
Частота кадров                           : 31,250 кадров/сек (1536 SPF)
Метод сжатия                             : С потерями
Размер потока                            : 139 Мбайт (7%)
Заголовок                                : AVO-Юрий Сербин
Язык                                     : Russian
Service kind                             : Complete Main
Default                                  : Нет
Forced                                   : Нет
Duration_Source                          : General_Duration

Аудио #3
Идентификатор                            : 4
Формат                                   : AC-3
Формат/Информация                        : Audio Coding 3
Коммерческое название                    : Dolby Digital
Идентификатор кодека                     : A_AC3
Продолжительность                        : 1 ч. 41 м.
Вид битрейта                             : Постоянный
Битрейт                                  : 448 Кбит/сек
Каналы                                   : 6 каналов
Channel layout                           : L R C LFE Ls Rs
Частота                                  : 48,0 КГц
Частота кадров                           : 31,250 кадров/сек (1536 SPF)
Метод сжатия                             : С потерями
Размер потока                            : 325 Мбайт (17%)
Язык                                     : English
Service kind                             : Complete Main
Default                                  : Нет
Forced                                   : Нет
Duration_Source                          : General_Duration

Меню
00:00:00.000                             : en:Chapter 1
00:02:49.480                             : en:Chapter 2
00:10:08.440                             : en:Chapter 3
00:13:24.840                             : en:Chapter 4
00:17:19.960                             : en:Chapter 5
00:25:17.520                             : en:Chapter 6
00:31:12.400                             : en:Chapter 7
00:37:07.720                             : en:Chapter 8
00:40:45.080                             : en:Chapter 9
00:43:37.880                             : en:Chapter 10
00:48:55.680                             : en:Chapter 11
00:55:25.280                             : en:Chapter 12
00:57:35.800                             : en:Chapter 13
01:01:34.960                             : en:Chapter 14
01:03:47.120                             : en:Chapter 15
01:08:31.960                             : en:Chapter 16
01:12:34.880                             : en:Chapter 17
01:18:32.360                             : en:Chapter 18
01:20:35.680                             : en:Chapter 19
01:22:46.000                             : en:Chapter 20
01:29:06.720                             : en:Chapter 21
01:32:11.640                             : en:Chapter 22
01:35:29.200                             : en:Chapter 23
01:37:36.400                             : en:Chapter 24

https://img10.lostpic.net/2020/06/16/80e42582dffdd5c00a6dad9ba788c15d.th.png https://img10.lostpic.net/2020/06/16/5c4c133f5fc7bcf86caf4955a21d2a78.th.png https://img10.lostpic.net/2020/06/16/bc242d0309477539a74789de8b82bc39.th.png https://img10.lostpic.net/2020/06/16/5cb9467fbed1af6418166a8aa163f479.th.png https://img10.lostpic.net/2020/06/16/13535d0ee3628c302bd4e050dde93b5e.th.png https://img10.lostpic.net/2020/06/16/55979ec8ebd5927a20afae1b90328d70.th.png https://img10.lostpic.net/2020/06/16/fddd289531e315fbd20729996eb12e89.th.png https://img10.lostpic.net/2020/06/16/d206d477d0bead3307a749bc5e83941c.th.png https://img10.lostpic.net/2020/06/16/3b0e0e1ac21e4e9a4f54031522057d38.th.png https://img10.lostpic.net/2020/06/16/0a9bb66da6023443c48006e28feb8a47.th.png https://img10.lostpic.net/2020/06/16/40284579cfa7c00a9d7365f3f51a8216.th.png https://img10.lostpic.net/2020/06/16/5b4b6860ddee7ec72390a87771e34d08.th.png  
http://korsar.tv/images/Banner-Korsar.gif http://korsar.tv/img/VKontakte.png  


Привет, гость
- Запомнить
Регистрация
Информация

Торрент трекер ExKinoRay.TV

Здесь вы можете скачать новые фильмы, сериалы, игры, музыку, софт и многое другое. Большая скорость скачивания на мультитрекерных раздачах. Всё абсолютно бесплатно.