Идальго: Погоня в пустыне | Hidalgo | 2004 | BDRip (1080p) | - KORSAR Одобрено администрацией

Участники
  • Раздают1
  • Качают0
  • Просмотров75
  • Скачали2
  • Комментариев0
  • Список файлов1
Залил раздачу
Поблагодарить
Никто
Характеристики
Вес15.39 GB (16,520,909,990)
Залит2020-07-03 04:14:23 Обновлено2020-07-03 04:24:48
Сетевая Нет
   https://a.radikal.ru/a20/1803/8d/0323a36ccadd.gif
Чтобы скачать, необходимо авторизоваться или зарегистрироваться.
Статус: Одобрено администрацией
Хотите видеть детали Раздачи пройдите авторизацию или регистрацию!

Спасибо за понимание...
Просьба отключить блокировщики рекламы на странице скриншотов по адресу: http://3.lostpic.net/, этим Вы поможете существованию проекта. Заранее спасибо!
x264 [info]: frame I:1417  Avg QP:16.49  size:262993x264 [info]: frame P:39335 Avg QP:17.92  size:141247x264 [info]: frame B:155491 Avg QP:20.30  size: 54202x264 [info]: consecutive B-frames:  1.2%  1.3%  3.5% 22.4% 14.3% 50.8%  2.9%  1.4%  0.6%  0.9%  0.5%Общее
Уникальный идентификатор                 : 201367835656804584943113538192752965792 (0x977E08D1E5E10644A32269E0D9D6F8A0)
Полное имя                               : D:\Идальго. Погоня в пустыне_2004-BDRip 1080p_KORSAR.mkv
Формат                                   : Matroska
Версия формата                           : Version 2
Размер файла                             : 15,4 Гбайт
Продолжительность                        : 2 ч. 16 м.
Общий поток                              : 16,1 Мбит/сек
Название фильма                          : Идальго. Погоня в пустыне_2004-BDRip 1080p_KORSAR
Дата кодирования                         : UTC 2020-06-22 13:52:32
Программа кодирования                    : mkvmerge v5.8.0 ('No Sleep / Pillow') built on Sep  2 2012 15:37:04
Библиотека кодирования                   : libebml v1.2.3 + libmatroska v1.3.0
Обложка                                  : Yes
Attachments                              : cover.jpg / xlog.txt

Видео
Идентификатор                            : 1
Формат                                   : AVC
Формат/Информация                        : Advanced Video Codec
Профиль формата                          : High@L4.1
Настройки формата                        : CABAC / 5 Ref Frames
Параметр CABAC формата                   : Да
Параметр RefFrames формата               : 5 кадров
Идентификатор кодека                     : V_MPEG4/ISO/AVC
Продолжительность                        : 2 ч. 16 м.
Битрейт                                  : 13,7 Мбит/сек
Ширина                                   : 1 920 пикселей
Высота                                   : 802 пикселя
Соотношение сторон                       : 2,40:1
Режим частоты кадров                     : Постоянный
Частота кадров                           : 23,976 (24000/1001) кадра/сек
Цветовое пространство                    : YUV
Субдискретизация насыщенности            : 4:2:0
Битовая глубина                          : 8 бит
Тип развёртки                            : Прогрессивная
Бит/(Пиксели*Кадры)                      : 0.371
Размер потока                            : 13,1 Гбайт (85%)
Библиотека кодирования                   : x264 core 152 r2851kMod ba24899
Настройки программы                      : cabac=1 / ref=5 / deblock=1:-3:-3 / analyse=0x3:0x113 / me=umh / subme=10 / psy=1 / fade_compensate=0.00 / psy_rd=1.05:0.10 / mixed_ref=1 / me_range=48 / chroma_me=1 / trellis=2 / 8x8dct=1 / cqm=0 / deadzone=21,11 / fast_pskip=1 / chroma_qp_offset=-3 / threads=4 / lookahead_threads=1 / sliced_threads=0 / nr=0 / decimate=1 / interlaced=0 / bluray_compat=0 / constrained_intra=0 / bframes=10 / b_pyramid=2 / b_adapt=2 / b_bias=0 / direct=1 / weightb=1 / open_gop=0 / weightp=2 / keyint=240 / keyint_min=23 / scenecut=40 / intra_refresh=0 / rc_lookahead=40 / rc=crf / mbtree=0 / crf=17.3000 / qcomp=0.63 / qpmin=0 / qpmax=33 / qpstep=4 / vbv_maxrate=50000 / vbv_bufsize=62500 / crf_max=0.0 / nal_hrd=none / filler=0 / ip_ratio=1.40 / pb_ratio=1.30 / aq=2:0.70
Язык                                     : English
Default                                  : Да
Forced                                   : Нет
Цветовой диапазон                        : Limited
Основные цвета                           : BT.709
Характеристики трансфера                 : BT.709
Коэффициенты матрицы                     : BT.709
Duration_Source                          : General_Duration

Аудио #1
Идентификатор                            : 2
Формат                                   : AC-3
Формат/Информация                        : Audio Coding 3
Коммерческое название                    : Dolby Digital
Идентификатор кодека                     : A_AC3
Продолжительность                        : 2 ч. 16 м.
Вид битрейта                             : Постоянный
Битрейт                                  : 640 Кбит/сек
Каналы                                   : 6 каналов
Channel layout                           : L R C LFE Ls Rs
Частота                                  : 48,0 КГц
Частота кадров                           : 31,250 кадров/сек (1536 SPF)
Метод сжатия                             : С потерями
Размер потока                            : 624 Мбайт (4%)
Заголовок                                : Дубляж [Bluray CEE]
Язык                                     : Russian
Service kind                             : Complete Main
Default                                  : Да
Forced                                   : Нет
Duration_Source                          : General_Duration

Аудио #2
Идентификатор                            : 3
Формат                                   : AC-3
Формат/Информация                        : Audio Coding 3
Коммерческое название                    : Dolby Digital
Идентификатор кодека                     : A_AC3
Продолжительность                        : 2 ч. 16 м.
Вид битрейта                             : Постоянный
Битрейт                                  : 640 Кбит/сек
Каналы                                   : 6 каналов
Channel layout                           : L R C LFE Ls Rs
Частота                                  : 48,0 КГц
Частота кадров                           : 31,250 кадров/сек (1536 SPF)
Метод сжатия                             : С потерями
Размер потока                            : 624 Мбайт (4%)
Заголовок                                : Юрий Сербин
Язык                                     : Russian
Service kind                             : Complete Main
Default                                  : Нет
Forced                                   : Нет
Duration_Source                          : General_Duration

Аудио #3
Идентификатор                            : 4
Формат                                   : AC-3
Формат/Информация                        : Audio Coding 3
Коммерческое название                    : Dolby Digital
Идентификатор кодека                     : A_AC3
Продолжительность                        : 2 ч. 16 м.
Вид битрейта                             : Постоянный
Битрейт                                  : 192 Кбит/сек
Каналы                                   : 2 канала
Channel layout                           : L R
Частота                                  : 48,0 КГц
Частота кадров                           : 31,250 кадров/сек (1536 SPF)
Метод сжатия                             : С потерями
Размер потока                            : 187 Мбайт (1%)
Заголовок                                : Многоголосый, ICTV
Язык                                     : Ukrainian
Service kind                             : Complete Main
Default                                  : Нет
Forced                                   : Нет
Duration_Source                          : General_Duration

Аудио #4
Идентификатор                            : 5
Формат                                   : AC-3
Формат/Информация                        : Audio Coding 3
Коммерческое название                    : Dolby Digital
Идентификатор кодека                     : A_AC3
Продолжительность                        : 2 ч. 16 м.
Вид битрейта                             : Постоянный
Битрейт                                  : 640 Кбит/сек
Каналы                                   : 6 каналов
Channel layout                           : L R C LFE Ls Rs
Частота                                  : 48,0 КГц
Частота кадров                           : 31,250 кадров/сек (1536 SPF)
Метод сжатия                             : С потерями
Размер потока                            : 624 Мбайт (4%)
Язык                                     : English
Service kind                             : Complete Main
Default                                  : Нет
Forced                                   : Нет
Duration_Source                          : General_Duration

Текст #1
Идентификатор                            : 6
Формат                                   : UTF-8
Идентификатор кодека                     : S_TEXT/UTF8
Идентификатор кодека/Информация          : UTF-8 Plain Text
Заголовок                                : forced
Язык                                     : Russian
Default                                  : Да
Forced                                   : Нет

Текст #2
Идентификатор                            : 7
Формат                                   : UTF-8
Идентификатор кодека                     : S_TEXT/UTF8
Идентификатор кодека/Информация          : UTF-8 Plain Text
Заголовок                                : full
Язык                                     : Russian
Default                                  : Нет
Forced                                   : Нет

Текст #3
Идентификатор                            : 8
Формат                                   : UTF-8
Идентификатор кодека                     : S_TEXT/UTF8
Идентификатор кодека/Информация          : UTF-8 Plain Text
Язык                                     : English
Default                                  : Нет
Forced                                   : Нет

Меню
00:00:00.000                             : en:Opening/Teaching Respect
00:04:00.115                             : en:Wounded Knee Creek
00:08:08.321                             : en:Buffalo Bill's Wild West Show
00:13:07.787                             : en:An Invitation Accepted
00:23:58.687                             : en:Arrival in a Strange World
00:31:04.613                             : en:The Sheikh of Sheikhs
00:39:29.993                             : en:The Journey Begins
00:50:55.719                             : en:Sandstorm!
00:58:42.394                             : en:Jazira's Visit
01:06:45.960                             : en:Raid and Abduction
01:12:21.796                             : en:Rescue
01:23:50.651                             : en:A Daughter Returned
01:30:35.805                             : en:The Race Continues
01:41:25.788                             : en:Treachery
01:49:23.640                             : enrayer to the Ancestors
01:55:24.209                             : en:To the Sea
02:01:13.558                             : en:Friends
02:03:51.466                             : enaid in Full/End Credits
https://img11.lostpic.net/2020/06/22/b6ca96e79eab0621a8f0f3332d8b173e.th.png https://img11.lostpic.net/2020/06/22/da28524a97271f6a37c07b3c2f942d01.th.png https://img11.lostpic.net/2020/06/22/e0a02cd591e6990ad6c6ea519bb91463.th.png https://img11.lostpic.net/2020/06/22/616ff4f44f7c197d88bb884ca443c23e.th.png https://img11.lostpic.net/2020/06/22/b699b2bc27c0daf2d03efa5e73879b16.th.png https://img11.lostpic.net/2020/06/22/b4abac70ed95d72411234dfa9d734d6a.th.png https://img11.lostpic.net/2020/06/22/1da6c0ecccc3a1588a8de50f0a87cee0.th.png https://img11.lostpic.net/2020/06/22/893733fa75d637f3373786dff69cf88a.th.png https://img11.lostpic.net/2020/06/22/5be16e796a24089a9ed8dafad909dfe3.th.png https://img11.lostpic.net/2020/06/22/edac305ea52eb4cd991ecf763bb877dc.th.png https://img11.lostpic.net/2020/06/22/1800fbe73c4f54b14cc40357f1fa1d77.th.png https://img11.lostpic.net/2020/06/22/dabc7ea01d6d9e738f645caba56e030f.th.png https://img11.lostpic.net/2020/06/22/270ccdc934b77a3b89b2ca3a8c7315bf.th.png https://img11.lostpic.net/2020/06/22/0ceb047891191a1aa29a1ed32f56b0cd.th.png  
http://korsar.tv/images/Banner-Korsar.gif http://korsar.tv/img/VKontakte.png  


Привет, гость
- Запомнить
Регистрация
Информация

Торрент трекер ExKinoRay.TV

Здесь вы можете скачать новые фильмы, сериалы, игры, музыку, софт и многое другое. Большая скорость скачивания на мультитрекерных раздачах. Всё абсолютно бесплатно.