Идальго: Погоня в пустыне | Hidalgo | 2004 | BDRip (720p) | - KORSAR Одобрено администрацией

Участники
  • Раздают2
  • Качают0
  • Просмотров78
  • Скачали0
  • Комментариев0
  • Список файлов1
Залил раздачу
Поблагодарить
Никто
Характеристики
Вес6.92 GB (7,428,449,541)
Залит2020-07-03 04:14:36 Обновлено2020-07-03 04:25:33
Сетевая Нет
   https://a.radikal.ru/a20/1803/8d/0323a36ccadd.gif
Чтобы скачать, необходимо авторизоваться или зарегистрироваться.
Статус: Одобрено администрацией
Хотите видеть детали Раздачи пройдите авторизацию или регистрацию!

Спасибо за понимание...
Просьба отключить блокировщики рекламы на странице скриншотов по адресу: http://3.lostpic.net/, этим Вы поможете существованию проекта. Заранее спасибо!
x264 [info]: frame I:1540  Avg QP:16.60  size:126905x264 [info]: frame P:40848 Avg QP:18.21  size: 56533x264 [info]: frame B:153855 Avg QP:20.69  size: 18006x264 [info]: consecutive B-frames:  1.3%  1.5%  4.7% 25.2% 20.5% 39.7%  3.5%  1.3%  0.6%  0.4%  0.9%  0.3%Общее
Уникальный идентификатор                 : 203006652587109540424907010177604406397 (0x98B9A8BB9CB0F334BBA0013ECFE64C7D)
Полное имя                               : D:\Идальго. Погоня в пустыне_2004-BDRip 720p_KORSAR.mkv
Формат                                   : Matroska
Версия формата                           : Version 2
Размер файла                             : 6,92 Гбайт
Продолжительность                        : 2 ч. 16 м.
Общий поток                              : 7 261 Кбит/сек
Название фильма                          : Идальго. Погоня в пустыне_2004-BDRip 720p_KORSAR
Дата кодирования                         : UTC 2020-06-23 09:14:28
Программа кодирования                    : mkvmerge v5.8.0 ('No Sleep / Pillow') built on Sep  2 2012 15:37:04
Библиотека кодирования                   : libebml v1.2.3 + libmatroska v1.3.0
Обложка                                  : Yes
Attachments                              : cover.jpg / xlog.txt

Видео
Идентификатор                            : 1
Формат                                   : AVC
Формат/Информация                        : Advanced Video Codec
Профиль формата                          : High@L4.1
Настройки формата                        : CABAC / 12 Ref Frames
Параметр CABAC формата                   : Да
Параметр RefFrames формата               : 12 кадров
Идентификатор кодека                     : V_MPEG4/ISO/AVC
Продолжительность                        : 2 ч. 16 м.
Битрейт                                  : 5 004 Кбит/сек
Ширина                                   : 1 278 пикселей
Высота                                   : 534 пикселя
Соотношение сторон                       : 2,40:1
Режим частоты кадров                     : Постоянный
Частота кадров                           : 23,976 (24000/1001) кадра/сек
Цветовое пространство                    : YUV
Субдискретизация насыщенности            : 4:2:0
Битовая глубина                          : 8 бит
Тип развёртки                            : Прогрессивная
Бит/(Пиксели*Кадры)                      : 0.306
Размер потока                            : 4,77 Гбайт (69%)
Библиотека кодирования                   : x264 core 152 r2851kMod ba24899
Настройки программы                      : cabac=1 / ref=12 / deblock=1:-3:-3 / analyse=0x3:0x113 / me=umh / subme=10 / psy=1 / fade_compensate=0.00 / psy_rd=1.05:0.10 / mixed_ref=1 / me_range=48 / chroma_me=1 / trellis=2 / 8x8dct=1 / cqm=0 / deadzone=21,11 / fast_pskip=1 / chroma_qp_offset=-3 / threads=4 / lookahead_threads=1 / sliced_threads=0 / nr=0 / decimate=1 / interlaced=0 / bluray_compat=0 / constrained_intra=0 / bframes=11 / b_pyramid=2 / b_adapt=2 / b_bias=0 / direct=1 / weightb=1 / open_gop=0 / weightp=2 / keyint=240 / keyint_min=23 / scenecut=40 / intra_refresh=0 / rc_lookahead=40 / rc=crf / mbtree=0 / crf=17.3000 / qcomp=0.63 / qpmin=0 / qpmax=33 / qpstep=4 / vbv_maxrate=50000 / vbv_bufsize=62500 / crf_max=0.0 / nal_hrd=none / filler=0 / ip_ratio=1.40 / pb_ratio=1.30 / aq=2:0.70
Язык                                     : English
Default                                  : Да
Forced                                   : Нет
Цветовой диапазон                        : Limited
Основные цвета                           : BT.709
Характеристики трансфера                 : BT.709
Коэффициенты матрицы                     : BT.709
Duration_Source                          : General_Duration

Аудио #1
Идентификатор                            : 2
Формат                                   : AC-3
Формат/Информация                        : Audio Coding 3
Коммерческое название                    : Dolby Digital
Идентификатор кодека                     : A_AC3
Продолжительность                        : 2 ч. 16 м.
Вид битрейта                             : Постоянный
Битрейт                                  : 640 Кбит/сек
Каналы                                   : 6 каналов
Channel layout                           : L R C LFE Ls Rs
Частота                                  : 48,0 КГц
Частота кадров                           : 31,250 кадров/сек (1536 SPF)
Метод сжатия                             : С потерями
Размер потока                            : 624 Мбайт (9%)
Заголовок                                : Дубляж [Bluray CEE]
Язык                                     : Russian
Service kind                             : Complete Main
Default                                  : Да
Forced                                   : Нет
Duration_Source                          : General_Duration

Аудио #2
Идентификатор                            : 3
Формат                                   : AC-3
Формат/Информация                        : Audio Coding 3
Коммерческое название                    : Dolby Digital
Идентификатор кодека                     : A_AC3
Продолжительность                        : 2 ч. 16 м.
Вид битрейта                             : Постоянный
Битрейт                                  : 640 Кбит/сек
Каналы                                   : 6 каналов
Channel layout                           : L R C LFE Ls Rs
Частота                                  : 48,0 КГц
Частота кадров                           : 31,250 кадров/сек (1536 SPF)
Метод сжатия                             : С потерями
Размер потока                            : 624 Мбайт (9%)
Заголовок                                : Юрий Сербин
Язык                                     : Russian
Service kind                             : Complete Main
Default                                  : Нет
Forced                                   : Нет
Duration_Source                          : General_Duration

Аудио #3
Идентификатор                            : 4
Формат                                   : AC-3
Формат/Информация                        : Audio Coding 3
Коммерческое название                    : Dolby Digital
Идентификатор кодека                     : A_AC3
Продолжительность                        : 2 ч. 16 м.
Вид битрейта                             : Постоянный
Битрейт                                  : 192 Кбит/сек
Каналы                                   : 2 канала
Channel layout                           : L R
Частота                                  : 48,0 КГц
Частота кадров                           : 31,250 кадров/сек (1536 SPF)
Метод сжатия                             : С потерями
Размер потока                            : 187 Мбайт (3%)
Заголовок                                : Многоголосый, ICTV
Язык                                     : Ukrainian
Service kind                             : Complete Main
Default                                  : Нет
Forced                                   : Нет
Duration_Source                          : General_Duration

Аудио #4
Идентификатор                            : 5
Формат                                   : AC-3
Формат/Информация                        : Audio Coding 3
Коммерческое название                    : Dolby Digital
Идентификатор кодека                     : A_AC3
Продолжительность                        : 2 ч. 16 м.
Вид битрейта                             : Постоянный
Битрейт                                  : 640 Кбит/сек
Каналы                                   : 6 каналов
Channel layout                           : L R C LFE Ls Rs
Частота                                  : 48,0 КГц
Частота кадров                           : 31,250 кадров/сек (1536 SPF)
Метод сжатия                             : С потерями
Размер потока                            : 624 Мбайт (9%)
Язык                                     : English
Service kind                             : Complete Main
Default                                  : Нет
Forced                                   : Нет
Duration_Source                          : General_Duration

Текст #1
Идентификатор                            : 6
Формат                                   : UTF-8
Идентификатор кодека                     : S_TEXT/UTF8
Идентификатор кодека/Информация          : UTF-8 Plain Text
Заголовок                                : forced
Язык                                     : Russian
Default                                  : Да
Forced                                   : Нет

Текст #2
Идентификатор                            : 7
Формат                                   : UTF-8
Идентификатор кодека                     : S_TEXT/UTF8
Идентификатор кодека/Информация          : UTF-8 Plain Text
Заголовок                                : full
Язык                                     : Russian
Default                                  : Нет
Forced                                   : Нет

Текст #3
Идентификатор                            : 8
Формат                                   : UTF-8
Идентификатор кодека                     : S_TEXT/UTF8
Идентификатор кодека/Информация          : UTF-8 Plain Text
Язык                                     : English
Default                                  : Нет
Forced                                   : Нет

Меню
00:00:00.000                             : en:Opening/Teaching Respect
00:04:00.115                             : en:Wounded Knee Creek
00:08:08.321                             : en:Buffalo Bill's Wild West Show
00:13:07.787                             : en:An Invitation Accepted
00:23:58.687                             : en:Arrival in a Strange World
00:31:04.613                             : en:The Sheikh of Sheikhs
00:39:29.993                             : en:The Journey Begins
00:50:55.719                             : en:Sandstorm!
00:58:42.394                             : en:Jazira's Visit
01:06:45.960                             : en:Raid and Abduction
01:12:21.796                             : en:Rescue
01:23:50.651                             : en:A Daughter Returned
01:30:35.805                             : en:The Race Continues
01:41:25.788                             : en:Treachery
01:49:23.640                             : enrayer to the Ancestors
01:55:24.209                             : en:To the Sea
02:01:13.558                             : en:Friends
02:03:51.466                             : enaid in Full/End Credits

https://img11.lostpic.net/2020/06/22/f9f3b281b80b6e737b01077f630eeb99.th.png https://img11.lostpic.net/2020/06/22/81995cd1bb5c3f0e1479bbbeea2c2180.th.png https://img11.lostpic.net/2020/06/22/7d24cf5ced9f49a3a858e592eef5649b.th.png https://img11.lostpic.net/2020/06/22/22cbcd1f8edcbd96307393015931c205.th.png https://img11.lostpic.net/2020/06/22/f1b7f39cb25f4460f30853adabd093c6.th.png https://img11.lostpic.net/2020/06/22/28546deb23c893afae087bf0f186f69f.th.png https://img11.lostpic.net/2020/06/22/79517b9620b1a2bff2c2dee3014693c2.th.png https://img11.lostpic.net/2020/06/22/10993addea76bde733a001745bacc254.th.png https://img11.lostpic.net/2020/06/22/2200dc0e25f92d05f86f6951f16bec13.th.png https://img11.lostpic.net/2020/06/22/bb4681fd61889eaed687927afd982a09.th.png https://img11.lostpic.net/2020/06/22/2342e3c91b593ca3157bb15bfb00684e.th.png https://img11.lostpic.net/2020/06/22/51cd59b0bfffbcf6db440c44184c291a.th.png https://img11.lostpic.net/2020/06/22/904c8c96030447778cd1d38b7f1c2727.th.png https://img11.lostpic.net/2020/06/22/8aa4c269cd2d2145319b8a21db810d80.th.png https://img11.lostpic.net/2020/06/22/b87276ace6d46cd32af0b584d99323c7.th.png https://img11.lostpic.net/2020/06/22/a309ead762fd4b5c5b91669768715b67.th.png https://img11.lostpic.net/2020/06/22/20eeb40790baca97b7c58b2ffa899020.th.png https://img11.lostpic.net/2020/06/22/d242b967acf33a4852d5aea9a04b98b1.th.png  
http://korsar.tv/images/Banner-Korsar.gif http://korsar.tv/img/VKontakte.png  


Привет, гость
- Запомнить
Регистрация
Информация

Торрент трекер ExKinoRay.TV

Здесь вы можете скачать новые фильмы, сериалы, игры, музыку, софт и многое другое. Большая скорость скачивания на мультитрекерных раздачах. Всё абсолютно бесплатно.