Парад Победы 1945 года на Красной площади | 2020 | HDTVRip-AVC | - KORSAR | Полная версия Одобрено администрацией

Участники
  • Раздают4
  • Качают0
  • Просмотров28
  • Скачали0
  • Комментариев0
  • Список файлов1
Залил раздачу
Поблагодарить
Никто
Характеристики
Вес6.11 GB (6,564,640,832)
Залит2020-08-26 20:37:27 Обновлено2020-08-26 21:03:40
Сетевая Нет
   https://a.radikal.ru/a20/1803/8d/0323a36ccadd.gif
Чтобы скачать, необходимо авторизоваться или зарегистрироваться.
Статус: Одобрено администрацией
Хотите видеть детали Раздачи пройдите авторизацию или регистрацию!

Спасибо за понимание...
Просьба отключить блокировщики рекламы на странице скриншотов по адресу: http://3.lostpic.net/, этим Вы поможете существованию проекта. Заранее спасибо!
x264 [info]: frame I:1353  Avg QP:17.75  size:104505x264 [info]: frame P:58470 Avg QP:19.90  size: 58156x264 [info]: frame B:168485 Avg QP:22.01  size: 16628x264 [info]: consecutive B-frames:  3.9%  4.8% 10.3% 29.1% 21.2% 24.1%  4.5%  1.4%  0.4%  0.2%  0.0%  0.0%Общее
Уникальный идентификатор                 : 243841065060169069680100732772408722124 (0xB77214B503C5533BB5B6D31FC86982CC)
Полное имя                               : K:\Парад Победы 1945 года-HDTVRip-AVC_KORSAR.mkv
Формат                                   : Matroska
Версия формата                           : Version 2
Размер файла                             : 6,11 Гбайт
Продолжительность                        : 2 ч. 32 м.
Общий поток                              : 5751 Кбит/сек
Название фильма                          : Парад Победы 1945 года-HDTVRip-AVC_KORSAR
Дата кодирования                         : UTC 2020-07-01 09:21:53
Программа кодирования                    : mkvmerge v5.8.0 ('No Sleep / Pillow') built on Sep  2 2012 15:37:04
Библиотека кодирования                   : libebml v1.2.3 + libmatroska v1.3.0

Видео
Идентификатор                            : 1
Формат                                   : AVC
Формат/Информация                        : Advanced Video Codec
Профиль формата                          : High@L4.1
Настройки формата                        : CABAC / 14 Ref Frames
Параметр CABAC формата                   : Да
Параметр RefFrames формата               : 14 кадров
Идентификатор кодека                     : V_MPEG4/ISO/AVC
Продолжительность                        : 2 ч. 32 м.
Битрейт                                  : 5444 Кбит/сек
Ширина                                   : 884 пикселя
Высота                                   : 648 пикселей
Соотношение сторон                       : 4:3
Режим частоты кадров                     : Постоянный
Частота кадров                           : 25,000 кадров/сек
Цветовое пространство                    : YUV
Субдискретизация насыщенности            : 4:2:0
Битовая глубина                          : 8 бит
Тип развёртки                            : Прогрессивная
Бит/(Пиксели*Кадры)                      : 0.380
Размер потока                            : 5,79 Гбайт (95%)
Библиотека кодирования                   : x264 core 152 r2851kMod ba24899
Настройки программы                      : cabac=1 / ref=14 / deblock=1:-1:-1 / analyse=0x3:0x113 / me=umh / subme=10 / psy=1 / fade_compensate=0.00 / psy_rd=1.03:0.10 / mixed_ref=1 / me_range=48 / chroma_me=1 / trellis=2 / 8x8dct=1 / cqm=0 / deadzone=21,11 / fast_pskip=1 / chroma_qp_offset=-3 / threads=4 / lookahead_threads=1 / sliced_threads=0 / nr=0 / decimate=1 / interlaced=0 / bluray_compat=0 / constrained_intra=0 / bframes=11 / b_pyramid=2 / b_adapt=2 / b_bias=0 / direct=1 / weightb=1 / open_gop=0 / weightp=2 / keyint=250 / keyint_min=25 / scenecut=40 / intra_refresh=0 / rc_lookahead=40 / rc=crf / mbtree=0 / crf=16.5000 / qcomp=0.63 / qpmin=0 / qpmax=33 / qpstep=4 / vbv_maxrate=50000 / vbv_bufsize=62500 / crf_max=0.0 / nal_hrd=none / filler=0 / ip_ratio=1.40 / pb_ratio=1.30 / aq=1:0.80
Язык                                     : English
Default                                  : Да
Forced                                   : Нет
Цветовой диапазон                        : Limited
Основные цвета                           : BT.709
Характеристики трансфера                 : BT.709
Коэффициенты матрицы                     : BT.709

Аудио
Идентификатор                            : 2
Формат                                   : AC-3
Формат/Информация                        : Audio Coding 3
Коммерческое название                    : Dolby Digital
Идентификатор кодека                     : A_AC3
Продолжительность                        : 2 ч. 32 м.
Вид битрейта                             : Постоянный
Битрейт                                  : 192 Кбит/сек
Каналы                                   : 2 канала
ChannelLayout                            : L R
Частота                                  : 48,0 КГц
Частота кадров                           : 31,250 кадров/сек (1536 SPF)
Метод сжатия                             : С потерями
Размер потока                            : 209 Мбайт (3%)
Язык                                     : Russian
ServiceKind/String                       : Complete Main
Default                                  : Нет
Forced                                   : Нет

https://img10.lostpic.net/2020/07/01/f24f0a46f2cc71552c9f2994654f5495.th.png https://img10.lostpic.net/2020/07/01/d93937e8a7c636205e43893a51dc59f4.th.png https://img10.lostpic.net/2020/07/01/d1cb578cde559fb51cbab286dd9b49dc.th.png https://img10.lostpic.net/2020/07/01/7dbe0105cedb8c7faefdb3254304d871.th.png https://img10.lostpic.net/2020/07/01/2c3bc24f4ae21dee75bb77c098fa5a47.th.png https://img10.lostpic.net/2020/07/01/c8ae240742eb0a72a67df2264871fe8a.th.png https://img10.lostpic.net/2020/07/01/0a2aca5edad7d4185c30e48d50fefc67.th.png https://img10.lostpic.net/2020/07/01/968c6fe3f1e321ca3bd60f7feb84facb.th.png https://img10.lostpic.net/2020/07/01/93c8a85a6284dd044dd97acb49254ac5.th.png https://img10.lostpic.net/2020/07/01/eb2d817083e89e153a1778761753ddc1.th.png  


Привет, гость
- Запомнить
Регистрация
Информация

Торрент трекер ExKinoRay.TV

Здесь вы можете скачать новые фильмы, сериалы, игры, музыку, софт и многое другое. Большая скорость скачивания на мультитрекерных раздачах. Всё абсолютно бесплатно.