Прости | 1986 | DVDRip-AVC | - KORSAR Одобрено администрацией

Участники
  • Раздают1
  • Качают0
  • Просмотров40
  • Скачали0
  • Комментариев0
  • Список файлов1
Залил раздачу
Поблагодарить
Характеристики
Вес2.15 GB (2,309,413,303)
Залит2020-08-26 20:38:46 Обновлено2020-08-26 21:17:31
Сетевая Нет
   https://a.radikal.ru/a20/1803/8d/0323a36ccadd.gif
Чтобы скачать, необходимо авторизоваться или зарегистрироваться.
Статус: Одобрено администрацией
Хотите видеть детали Раздачи пройдите авторизацию или регистрацию!

Спасибо за понимание...
Просьба отключить блокировщики рекламы на странице скриншотов по адресу: http://3.lostpic.net/, этим Вы поможете существованию проекта. Заранее спасибо!
x264 [info]: frame I:561   Avg QP:17.14  size: 58815x264 [info]: frame P:21904 Avg QP:18.67  size: 35367x264 [info]: frame B:95577 Avg QP:20.35  size: 12143x264 [info]: consecutive B-frames:  0.7%  0.6%  2.5%  7.2% 22.9% 60.5%  4.5%  0.7%  0.6%  0.3%Общее
Уникальный идентификатор                 : 224767086531001879421557429846208453104 (0xA91890F5840982C6BBD02C41EA4899F0)
Полное имя                               : D:\Прости_1986-DVDRip-AVC_KORSAR.mkv
Формат                                   : Matroska
Версия формата                           : Version 2
Размер файла                             : 2,15 Гбайт
Продолжительность                        : 1 ч. 18 м.
Общий поток                              : 3 913 Кбит/сек
Дата кодирования                         : UTC 2020-07-07 07:26:50
Программа кодирования                    : mkvmerge v5.8.0 ('No Sleep / Pillow') built on Sep  2 2012 15:37:04
Библиотека кодирования                   : libebml v1.2.3 + libmatroska v1.3.0

Видео
Идентификатор                            : 1
Формат                                   : AVC
Формат/Информация                        : Advanced Video Codec
Профиль формата                          : High@L4.1
Настройки формата                        : CABAC / 16 Ref Frames
Параметр CABAC формата                   : Да
Параметр RefFrames формата               : 16 кадров
Идентификатор кодека                     : V_MPEG4/ISO/AVC
Продолжительность                        : 1 ч. 18 м.
Битрейт                                  : 3 259 Кбит/сек
Ширина                                   : 688 пикселей
Высота                                   : 400 пикселей
Соотношение сторон                       : 1,85:1
Режим частоты кадров                     : Постоянный
Частота кадров                           : 25,000 кадров/сек
Цветовое пространство                    : YUV
Субдискретизация насыщенности            : 4:2:0
Битовая глубина                          : 8 бит
Тип развёртки                            : Прогрессивная
Бит/(Пиксели*Кадры)                      : 0.474
Размер потока                            : 1,79 Гбайт (83%)
Библиотека кодирования                   : x264 core 152 r2851kMod ba24899
Настройки программы                      : cabac=1 / ref=16 / deblock=1:-2:-1 / analyse=0x3:0x133 / me=umh / subme=10 / psy=1 / fade_compensate=0.00 / psy_rd=1.05:0.10 / mixed_ref=1 / me_range=40 / chroma_me=1 / trellis=2 / 8x8dct=1 / cqm=0 / deadzone=21,11 / fast_pskip=1 / chroma_qp_offset=-3 / threads=4 / lookahead_threads=1 / sliced_threads=0 / nr=0 / decimate=1 / interlaced=0 / bluray_compat=0 / constrained_intra=0 / bframes=9 / b_pyramid=2 / b_adapt=2 / b_bias=0 / direct=1 / weightb=1 / open_gop=0 / weightp=2 / keyint=250 / keyint_min=25 / scenecut=40 / intra_refresh=0 / rc_lookahead=40 / rc=crf / mbtree=0 / crf=18.3000 / qcomp=0.63 / qpmin=0 / qpmax=33 / qpstep=4 / vbv_maxrate=50000 / vbv_bufsize=62500 / crf_max=0.0 / nal_hrd=none / filler=0 / ip_ratio=1.40 / pb_ratio=1.30 / aq=1:1.00
Язык                                     : English
Default                                  : Да
Forced                                   : Нет
Цветовой диапазон                        : Limited
Основные цвета                           : BT.601 PAL
Характеристики трансфера                 : BT.470 System B/G
Коэффициенты матрицы                     : BT.470 System B/G
Duration_Source                          : General_Duration

Аудио #1
Идентификатор                            : 2
Формат                                   : AC-3
Формат/Информация                        : Audio Coding 3
Коммерческое название                    : Dolby Digital
Идентификатор кодека                     : A_AC3
Продолжительность                        : 1 ч. 18 м.
Вид битрейта                             : Постоянный
Битрейт                                  : 384 Кбит/сек
Каналы                                   : 5 каналов
Channel layout                           : L R C Ls Rs
Частота                                  : 48,0 КГц
Частота кадров                           : 31,250 кадров/сек (1536 SPF)
Метод сжатия                             : С потерями
Размер потока                            : 216 Мбайт (10%)
Заголовок                                : 5 ch
Язык                                     : Russian
Service kind                             : Complete Main
Default                                  : Да
Forced                                   : Нет
Duration_Source                          : General_Duration

Аудио #2
Идентификатор                            : 3
Формат                                   : AC-3
Формат/Информация                        : Audio Coding 3
Коммерческое название                    : Dolby Digital
Идентификатор кодека                     : A_AC3
Продолжительность                        : 1 ч. 18 м.
Вид битрейта                             : Постоянный
Битрейт                                  : 192 Кбит/сек
Каналы                                   : 2 канала
Channel layout                           : L R
Частота                                  : 48,0 КГц
Частота кадров                           : 31,250 кадров/сек (1536 SPF)
Метод сжатия                             : С потерями
Размер потока                            : 108 Мбайт (5%)
Заголовок                                : 2 ch
Язык                                     : Russian
Service kind                             : Complete Main
Default                                  : Нет
Forced                                   : Нет
Duration_Source                          : General_Duration

Меню
00:00:00.000                             : :Chapter 01
00:08:38.400                             : :Chapter 02
00:15:07.480                             : :Chapter 03
00:18:59.080                             : :Chapter 04
00:29:23.840                             : :Chapter 05
00:38:34.640                             : :Chapter 06
00:44:01.640                             : :Chapter 07
00:50:45.040                             : :Chapter 08
00:55:58.240                             : :Chapter 09
01:05:00.640                             : :Chapter 10
01:10:07.240                             : :Chapter 11
01:17:42.640                             : :Chapter 12

https://img10.lostpic.net/2020/07/07/6a9a6da1ec97633ae1da9634be15ab5e.th.png https://img10.lostpic.net/2020/07/07/865c429b24b1f5932d0548cc17cf14dc.th.png https://img10.lostpic.net/2020/07/07/cf9b5d9f7e27b1fbc7ee3f410db82f5b.th.png https://img10.lostpic.net/2020/07/07/811ce1ade37b2a8831c70427167de9d5.th.png https://img10.lostpic.net/2020/07/07/ff2b5ef405921de8ae849de261df9763.th.png https://img10.lostpic.net/2020/07/07/dd98afc8e03208578f1562d890934667.th.png  


Привет, гость
- Запомнить
Регистрация
Информация

Торрент трекер ExKinoRay.TV

Здесь вы можете скачать новые фильмы, сериалы, игры, музыку, софт и многое другое. Большая скорость скачивания на мультитрекерных раздачах. Всё абсолютно бесплатно.