Старая крепость | Серии: 1-7 из 7 | 1973 | SATRip-AVC | - KORSAR Одобрено администрацией

Участники
  • Раздают3
  • Качают0
  • Просмотров60
  • Скачали1
  • Комментариев0
  • Список файлов7
Залил раздачу
Поблагодарить
Характеристики
Вес8.68 GB (9,322,850,647)
Залит2020-08-26 20:39:08 Обновлено2020-08-26 21:15:42
Сетевая Нет
   https://a.radikal.ru/a20/1803/8d/0323a36ccadd.gif
Чтобы скачать, необходимо авторизоваться или зарегистрироваться.
Статус: Одобрено администрацией
Хотите видеть детали Раздачи пройдите авторизацию или регистрацию!

Спасибо за понимание...
Просьба отключить блокировщики рекламы на странице скриншотов по адресу: http://3.lostpic.net/, этим Вы поможете существованию проекта. Заранее спасибо!
x264 [info]: frame I:600   Avg QP:17.89  size: 63839x264 [info]: frame P:21933 Avg QP:19.34  size: 32012x264 [info]: frame B:72434 Avg QP:21.46  size:  8109x264 [info]: consecutive B-frames:  2.6%  3.3% 11.1% 17.8% 16.6% 45.6%  2.6%  0.4%  0.0%  0.0%Общее
Уникальный идентификатор                 : 185963027897615980727036043358999369453 (0x8BE72D286635C2DE98684410822756ED)
Полное имя                               : D:\Старая крепость_1973-SATRip-AVC_KORSAR\Крепость-1.mkv
Формат                                   : Matroska
Версия формата                           : Version 2
Размер файла                             : 1,32 Гбайт
Продолжительность                        : 1 ч. 3 м.
Общий поток                              : 2 990 Кбит/сек
Название фильма                          : Старая крепость_1973-SATRip-AVC_KORSAR
Дата кодирования                         : UTC 2020-07-09 10:40:25
Программа кодирования                    : mkvmerge v5.8.0 ('No Sleep / Pillow') built on Sep  2 2012 15:37:04
Библиотека кодирования                   : libebml v1.2.3 + libmatroska v1.3.0

Видео
Идентификатор                            : 1
Формат                                   : AVC
Формат/Информация                        : Advanced Video Codec
Профиль формата                          : High@L4.1
Настройки формата                        : CABAC / 14 Ref Frames
Параметр CABAC формата                   : Да
Параметр RefFrames формата               : 14 кадров
Идентификатор кодека                     : V_MPEG4/ISO/AVC
Продолжительность                        : 1 ч. 3 м.
Битрейт                                  : 2 739 Кбит/сек
Ширина                                   : 704 пикселя
Высота                                   : 574 пикселя
Соотношение сторон                       : 4:3
Режим частоты кадров                     : Постоянный
Частота кадров                           : 25,000 кадров/сек
Цветовое пространство                    : YUV
Субдискретизация насыщенности            : 4:2:0
Битовая глубина                          : 8 бит
Тип развёртки                            : Прогрессивная
Бит/(Пиксели*Кадры)                      : 0.271
Размер потока                            : 1,21 Гбайт (92%)
Библиотека кодирования                   : x264 core 152 r2851kMod ba24899
Настройки программы                      : cabac=1 / ref=14 / deblock=1:-1:-1 / analyse=0x3:0x133 / me=umh / subme=10 / psy=1 / fade_compensate=0.00 / psy_rd=1.05:0.10 / mixed_ref=1 / me_range=48 / chroma_me=1 / trellis=2 / 8x8dct=1 / cqm=0 / deadzone=21,11 / fast_pskip=1 / chroma_qp_offset=-3 / threads=12 / lookahead_threads=2 / sliced_threads=0 / nr=0 / decimate=1 / interlaced=0 / bluray_compat=0 / constrained_intra=0 / bframes=9 / b_pyramid=2 / b_adapt=2 / b_bias=0 / direct=1 / weightb=1 / open_gop=0 / weightp=2 / keyint=250 / keyint_min=25 / scenecut=40 / intra_refresh=0 / rc=crf / mbtree=0 / crf=17.5000 / qcomp=0.63 / qpmin=0 / qpmax=30 / qpstep=4 / ip_ratio=1.40 / pb_ratio=1.30 / aq=1:1.00
Язык                                     : English
Default                                  : Да
Forced                                   : Нет
Цветовой диапазон                        : Limited
Основные цвета                           : BT.601 PAL
Характеристики трансфера                 : BT.470 System B/G
Коэффициенты матрицы                     : BT.470 System B/G
Duration_Source                          : General_Duration

Аудио
Идентификатор                            : 2
Формат                                   : AC-3
Формат/Информация                        : Audio Coding 3
Коммерческое название                    : Dolby Digital
Идентификатор кодека                     : A_AC3
Продолжительность                        : 1 ч. 3 м.
Вид битрейта                             : Постоянный
Битрейт                                  : 192 Кбит/сек
Каналы                                   : 2 канала
Channel layout                           : L R
Частота                                  : 48,0 КГц
Частота кадров                           : 31,250 кадров/сек (1536 SPF)
Метод сжатия                             : С потерями
Размер потока                            : 86,9 Мбайт (6%)
Язык                                     : Russian
Service kind                             : Complete Main
Default                                  : Да
Forced                                   : Нет
Duration_Source                          : General_Duration

https://img10.lostpic.net/2020/07/09/3bd350e3e953378a56850bf7f4438cdb.th.png https://img10.lostpic.net/2020/07/09/e682e3dc1493928404fafb8c871dd29c.th.png https://img10.lostpic.net/2020/07/09/3dd6e0bbc9fc06d5f27f287ab9e82da8.th.png https://img10.lostpic.net/2020/07/09/0df9e5ca396830764d23b8f0c98d84f0.th.png https://img10.lostpic.net/2020/07/09/beb302973ff76b7d751e588f3af7cc01.th.png https://img10.lostpic.net/2020/07/09/6012888dfb7e81a0a0b09f35e18af872.th.png https://img10.lostpic.net/2020/07/09/6677196654af77651f6cffbda50731cc.th.png https://img10.lostpic.net/2020/07/09/7ff9b70fc28632d8989feefdc2495aac.th.png https://img10.lostpic.net/2020/07/09/b43d9d7cb4749001de9f7d8ec701914a.th.png https://img10.lostpic.net/2020/07/09/393c53f020719a9344afd7a9aca6f2a1.th.png https://img10.lostpic.net/2020/07/09/f08f17a442c7fb83fbd0f2df1d1c675c.th.png https://img10.lostpic.net/2020/07/09/8777462b970fb1c1385b14f7c0203d8b.th.png https://img10.lostpic.net/2020/07/09/17a29461748137ad9b27b1bb3c05faca.th.png  


Привет, гость
- Запомнить
Регистрация
Информация

Торрент трекер ExKinoRay.TV

Здесь вы можете скачать новые фильмы, сериалы, игры, музыку, софт и многое другое. Большая скорость скачивания на мультитрекерных раздачах. Всё абсолютно бесплатно.