Летние впечатления о планете Z | 1986 | WEB-DLRip 720p | - KORSAR Одобрено администрацией

Участники
  • Раздают1
  • Качают0
  • Просмотров59
  • Скачали0
  • Комментариев0
  • Список файлов1
Залил раздачу
Поблагодарить
Характеристики
Вес4.51 GB (4,844,010,963)
Залит2020-08-26 20:39:34 Обновлено2020-08-26 21:13:11
Сетевая Нет
   https://a.radikal.ru/a20/1803/8d/0323a36ccadd.gif
Чтобы скачать, необходимо авторизоваться или зарегистрироваться.
Статус: Одобрено администрацией
Хотите видеть детали Раздачи пройдите авторизацию или регистрацию!

Спасибо за понимание...
Просьба отключить блокировщики рекламы на странице скриншотов по адресу: http://3.lostpic.net/, этим Вы поможете существованию проекта. Заранее спасибо!
x264 [info]: frame I:1084  Avg QP:16.97  size:111384x264 [info]: frame P:47438 Avg QP:18.72  size: 49537x264 [info]: frame B:150663 Avg QP:20.65  size: 14471x264 [info]: consecutive B-frames:  2.2%  4.0% 13.7% 21.3% 22.1% 29.7%  4.1%  1.0%  0.9%  0.4%  0.3%  0.1%  0.2%Общее
Уникальный идентификатор                 : 235212539551547669860601723775468812154 (0xB0F4498DEB6273718AA9D93628C9B77A)
Полное имя                               : D:\Летние впечатления о планете Z_1986-WEBRip 720p_KORSAR.mkv
Формат                                   : Matroska
Версия формата                           : Version 2
Размер файла                             : 4,51 Гбайт
Продолжительность                        : 2 ч. 12 м.
Общий поток                              : 4 864 Кбит/сек
Название фильма                          : Летние впечатления о планете Z_1986-WEBRip 720p_KORSAR
Дата кодирования                         : UTC 2020-07-11 06:44:11
Программа кодирования                    : mkvmerge v5.8.0 ('No Sleep / Pillow') built on Sep  2 2012 15:37:04
Библиотека кодирования                   : libebml v1.2.3 + libmatroska v1.3.0 / Lavf57.71.100

Видео
Идентификатор                            : 1
Формат                                   : AVC
Формат/Информация                        : Advanced Video Codec
Профиль формата                          : High@L4.1
Настройки формата                        : CABAC / 11 Ref Frames
Параметр CABAC формата                   : Да
Параметр RefFrames формата               : 11 кадров
Идентификатор кодека                     : V_MPEG4/ISO/AVC
Продолжительность                        : 2 ч. 12 м.
Битрейт                                  : 4 575 Кбит/сек
Ширина                                   : 1 008 пикселей
Высота                                   : 720 пикселей
Соотношение сторон                       : 1,400
Режим частоты кадров                     : Постоянный
Частота кадров                           : 25,000 кадров/сек
Цветовое пространство                    : YUV
Субдискретизация насыщенности            : 4:2:0
Битовая глубина                          : 8 бит
Тип развёртки                            : Прогрессивная
Бит/(Пиксели*Кадры)                      : 0.252
Размер потока                            : 4,24 Гбайт (94%)
Библиотека кодирования                   : x264 core 152 r2851kMod ba24899
Настройки программы                      : cabac=1 / ref=11 / deblock=1:-2:-2 / analyse=0x3:0x113 / me=umh / subme=10 / psy=1 / fade_compensate=0.00 / psy_rd=1.05:0.10 / mixed_ref=1 / me_range=48 / chroma_me=1 / trellis=2 / 8x8dct=1 / cqm=0 / deadzone=21,11 / fast_pskip=1 / chroma_qp_offset=-3 / threads=4 / lookahead_threads=1 / sliced_threads=0 / nr=0 / decimate=1 / interlaced=0 / bluray_compat=0 / constrained_intra=0 / bframes=12 / b_pyramid=2 / b_adapt=2 / b_bias=0 / direct=1 / weightb=1 / open_gop=0 / weightp=2 / keyint=250 / keyint_min=25 / scenecut=40 / intra_refresh=0 / rc_lookahead=40 / rc=crf / mbtree=0 / crf=17.7000 / qcomp=0.63 / qpmin=0 / qpmax=33 / qpstep=4 / vbv_maxrate=50000 / vbv_bufsize=62500 / crf_max=0.0 / nal_hrd=none / filler=0 / ip_ratio=1.40 / pb_ratio=1.30 / aq=1:0.90
Язык                                     : English
Default                                  : Да
Forced                                   : Нет
Цветовой диапазон                        : Limited
Основные цвета                           : BT.709
Характеристики трансфера                 : BT.709
Коэффициенты матрицы                     : BT.709
Duration_Source                          : General_Duration

Аудио
Идентификатор                            : 2
Формат                                   : AC-3
Формат/Информация                        : Audio Coding 3
Коммерческое название                    : Dolby Digital
Идентификатор кодека                     : A_AC3
Продолжительность                        : 2 ч. 12 м.
Вид битрейта                             : Постоянный
Битрейт                                  : 192 Кбит/сек
Каналы                                   : 2 канала
Channel layout                           : L R
Частота                                  : 48,0 КГц
Частота кадров                           : 31,250 кадров/сек (1536 SPF)
Метод сжатия                             : С потерями
Размер потока                            : 182 Мбайт (4%)
Язык                                     : Russian
Service kind                             : Complete Main
Default                                  : Да
Forced                                   : Нет
Duration_Source                          : General_Duration

https://img10.lostpic.net/2020/07/11/fdbe68c02032ba7f92d4dd8a662639bb.th.png https://img10.lostpic.net/2020/07/11/c78ee3fda9e0d9d30239e0b09a06e434.th.png https://img10.lostpic.net/2020/07/11/1ab867468e3c1104c7e2a855e94baa79.th.png https://img10.lostpic.net/2020/07/11/2251e2b618aa476638aef51daf0493e8.th.png https://img10.lostpic.net/2020/07/11/6c105a6f194fa31b860226d3ee6143dc.th.png https://img10.lostpic.net/2020/07/11/b56756bb2189c673da540f95623083b7.th.png https://img10.lostpic.net/2020/07/11/3a8dd98b8cbaa82ecea0a15f88b2694e.th.png https://img10.lostpic.net/2020/07/11/c324006b868d053b546c6acb4f2d3a55.th.png https://img10.lostpic.net/2020/07/11/812f7a26b319f124243b96a5d8245803.th.png https://img10.lostpic.net/2020/07/11/5b065d3dea763d6b1cb5364f81f57e3c.th.png https://img10.lostpic.net/2020/07/11/e2830285c8807510f62859abb701b349.th.png https://img10.lostpic.net/2020/07/11/756c56ae243fef3e6fa4e547f36e3b08.th.png  


Привет, гость
- Запомнить
Регистрация
Информация

Торрент трекер ExKinoRay.TV

Здесь вы можете скачать новые фильмы, сериалы, игры, музыку, софт и многое другое. Большая скорость скачивания на мультитрекерных раздачах. Всё абсолютно бесплатно.