Чудеса | Мистер Гонконг | Miracles | Mr Canton and Lady Rose | Ji ji | 1989 | BDRip 720p | - KORSAR | Remastered Одобрено администрацией

Участники
  • Раздают3
  • Качают0
  • Просмотров39
  • Скачали0
  • Комментариев0
  • Список файлов1
Залил раздачу
Поблагодарить
Характеристики
Вес12.84 GB (13,785,442,532)
Залит2020-08-26 20:40:16 Обновлено2020-08-26 21:09:37
Сетевая Нет
   https://a.radikal.ru/a20/1803/8d/0323a36ccadd.gif
Чтобы скачать, необходимо авторизоваться или зарегистрироваться.
Статус: Одобрено администрацией
Хотите видеть детали Раздачи пройдите авторизацию или регистрацию!

Спасибо за понимание...
Просьба отключить блокировщики рекламы на странице скриншотов по адресу: http://3.lostpic.net/, этим Вы поможете существованию проекта. Заранее спасибо!
x264 [info]: frame I:1762  Avg QP:17.18  size:176681x264 [info]: frame P:38465 Avg QP:18.32  size:105937x264 [info]: frame B:143469 Avg QP:19.94  size: 53529x264 [info]: consecutive B-frames:  1.6%  1.7%  6.3% 22.2% 18.9% 43.6%  3.2%  0.7%  0.7%  0.5%  0.2%  0.1%  0.2%Общее
Уникальный идентификатор                 : 206834627912476470114437145035344023532 (0x9B9AE67CE5BBD7A3BCDC9F5FD3498FEC)
Полное имя                               : D:\Чудеса. Мистер Гонконг_1989-BDRip 720p_KORSAR.mkv
Формат                                   : Matroska
Версия формата                           : Version 2
Размер файла                             : 12,8 Гбайт
Продолжительность                        : 2 ч. 7 м.
Общий поток                              : 14,4 Мбит/сек
Название фильма                          : Чудеса. Мистер Гонконг_1989-BDRip 720p_KORSAR
Дата кодирования                         : UTC 2020-07-17 14:23:54
Программа кодирования                    : mkvmerge v5.8.0 ('No Sleep / Pillow') built on Sep  2 2012 15:37:04
Библиотека кодирования                   : libebml v1.2.3 + libmatroska v1.3.0

Видео
Идентификатор                            : 1
Формат                                   : AVC
Формат/Информация                        : Advanced Video Codec
Профиль формата                          : High@L4.1
Настройки формата                        : CABAC / 12 Ref Frames
Параметр CABAC формата                   : Да
Параметр RefFrames формата               : 12 кадров
Идентификатор кодека                     : V_MPEG4/ISO/AVC
Продолжительность                        : 2 ч. 7 м.
Битрейт                                  : 12,3 Мбит/сек
Ширина                                   : 1 280 пикселей
Высота                                   : 544 пикселя
Соотношение сторон                       : 2,35:1
Режим частоты кадров                     : Постоянный
Частота кадров                           : 23,976 (24000/1001) кадра/сек
Цветовое пространство                    : YUV
Субдискретизация насыщенности            : 4:2:0
Битовая глубина                          : 8 бит
Тип развёртки                            : Прогрессивная
Бит/(Пиксели*Кадры)                      : 0.738
Размер потока                            : 11,0 Гбайт (86%)
Библиотека кодирования                   : x264 core 152 r2851kMod ba24899
Настройки программы                      : cabac=1 / ref=12 / deblock=1:-3:-3 / analyse=0x3:0x113 / me=umh / subme=11 / psy=1 / fade_compensate=0.00 / psy_rd=1.05:0.15 / mixed_ref=1 / me_range=64 / chroma_me=1 / trellis=2 / 8x8dct=1 / cqm=0 / deadzone=21,11 / fast_pskip=1 / chroma_qp_offset=-3 / threads=12 / lookahead_threads=3 / sliced_threads=0 / nr=0 / decimate=1 / interlaced=0 / bluray_compat=0 / constrained_intra=0 / bframes=12 / b_pyramid=2 / b_adapt=2 / b_bias=0 / direct=1 / weightb=1 / open_gop=0 / weightp=2 / keyint=240 / keyint_min=23 / scenecut=40 / intra_refresh=0 / rc=crf / mbtree=0 / crf=16.7000 / qcomp=0.63 / qpmin=0 / qpmax=30 / qpstep=4 / ip_ratio=1.40 / pb_ratio=1.30 / aq=3:0.90
Язык                                     : English
Default                                  : Да
Forced                                   : Нет
Цветовой диапазон                        : Limited
Основные цвета                           : BT.709
Характеристики трансфера                 : BT.709
Коэффициенты матрицы                     : BT.709
Duration_Source                          : General_Duration

Аудио #1
Идентификатор                            : 2
Формат                                   : AC-3
Формат/Информация                        : Audio Coding 3
Коммерческое название                    : Dolby Digital
Идентификатор кодека                     : A_AC3
Продолжительность                        : 2 ч. 7 м.
Вид битрейта                             : Постоянный
Битрейт                                  : 192 Кбит/сек
Каналы                                   : 2 канала
Channel layout                           : L R
Частота                                  : 48,0 КГц
Частота кадров                           : 31,250 кадров/сек (1536 SPF)
Метод сжатия                             : С потерями
Размер потока                            : 175 Мбайт (1%)
Заголовок                                : MVO | Инис
Язык                                     : Russian
Service kind                             : Complete Main
Default                                  : Да
Forced                                   : Нет
Statistics Tags Issue                    : mkvmerge v7.1.0 ('Good Love') 64bit built on Jul 27 2014 13:06:55 2020-05-01 12:35:05 / mkvmerge v5.8.0 ('No Sleep / Pillow') built on Sep  2 2012 15:37:04 2020-07-17 14:23:54
FromStats_BitRate                        : 192000
FromStats_Duration                       : 02:07:41.696000000
FromStats_FrameCount                     : 239428
FromStats_StreamSize                     : 183880704
Duration_Source                          : General_Duration

Аудио #2
Идентификатор                            : 3
Формат                                   : AC-3
Формат/Информация                        : Audio Coding 3
Коммерческое название                    : Dolby Digital
Идентификатор кодека                     : A_AC3
Продолжительность                        : 2 ч. 7 м.
Вид битрейта                             : Постоянный
Битрейт                                  : 192 Кбит/сек
Каналы                                   : 2 канала
Channel layout                           : L R
Частота                                  : 48,0 КГц
Частота кадров                           : 31,250 кадров/сек (1536 SPF)
Метод сжатия                             : С потерями
Размер потока                            : 175 Мбайт (1%)
Заголовок                                : MVO | ВГТРК
Язык                                     : Russian
Service kind                             : Complete Main
Default                                  : Нет
Forced                                   : Нет
Statistics Tags Issue                    : mkvmerge v7.1.0 ('Good Love') 64bit built on Jul 27 2014 13:06:55 2020-05-01 12:35:05 / mkvmerge v5.8.0 ('No Sleep / Pillow') built on Sep  2 2012 15:37:04 2020-07-17 14:23:54
FromStats_BitRate                        : 192000
FromStats_Duration                       : 02:07:41.696000000
FromStats_FrameCount                     : 239428
FromStats_StreamSize                     : 183880704
Duration_Source                          : General_Duration

Аудио #3
Идентификатор                            : 4
Формат                                   : AC-3
Формат/Информация                        : Audio Coding 3
Коммерческое название                    : Dolby Digital
Идентификатор кодека                     : A_AC3
Продолжительность                        : 2 ч. 7 м.
Вид битрейта                             : Постоянный
Битрейт                                  : 192 Кбит/сек
Каналы                                   : 2 канала
Channel layout                           : L R
Частота                                  : 48,0 КГц
Частота кадров                           : 31,250 кадров/сек (1536 SPF)
Метод сжатия                             : С потерями
Размер потока                            : 175 Мбайт (1%)
Заголовок                                : MVO | ТНТ
Язык                                     : Russian
Service kind                             : Complete Main
Default                                  : Нет
Forced                                   : Нет
Statistics Tags Issue                    : mkvmerge v7.1.0 ('Good Love') 64bit built on Jul 27 2014 13:06:55 2020-05-01 12:35:05 / mkvmerge v5.8.0 ('No Sleep / Pillow') built on Sep  2 2012 15:37:04 2020-07-17 14:23:54
FromStats_BitRate                        : 192000
FromStats_Duration                       : 02:07:41.696000000
FromStats_FrameCount                     : 239428
FromStats_StreamSize                     : 183880704
Duration_Source                          : General_Duration

Аудио #4
Идентификатор                            : 5
Формат                                   : AC-3
Формат/Информация                        : Audio Coding 3
Коммерческое название                    : Dolby Digital
Идентификатор кодека                     : A_AC3
Продолжительность                        : 2 ч. 7 м.
Вид битрейта                             : Постоянный
Битрейт                                  : 384 Кбит/сек
Каналы                                   : 6 каналов
Channel layout                           : L R C LFE Ls Rs
Частота                                  : 48,0 КГц
Частота кадров                           : 31,250 кадров/сек (1536 SPF)
Метод сжатия                             : С потерями
Размер потока                            : 351 Мбайт (3%)
Заголовок                                : AVO | С. Визгунов
Язык                                     : Russian
Service kind                             : Complete Main
Default                                  : Нет
Forced                                   : Нет
Statistics Tags Issue                    : mkvmerge v7.1.0 ('Good Love') 64bit built on Jul 27 2014 13:06:55 2020-05-01 12:35:05 / mkvmerge v5.8.0 ('No Sleep / Pillow') built on Sep  2 2012 15:37:04 2020-07-17 14:23:54
FromStats_BitRate                        : 384000
FromStats_Duration                       : 02:07:41.760000000
FromStats_FrameCount                     : 239430
FromStats_StreamSize                     : 367764480
Duration_Source                          : General_Duration

Аудио #5
Идентификатор                            : 6
Формат                                   : AC-3
Формат/Информация                        : Audio Coding 3
Коммерческое название                    : Dolby Digital
Идентификатор кодека                     : A_AC3
Продолжительность                        : 2 ч. 7 м.
Вид битрейта                             : Постоянный
Битрейт                                  : 384 Кбит/сек
Каналы                                   : 6 каналов
Channel layout                           : L R C LFE Ls Rs
Частота                                  : 48,0 КГц
Частота кадров                           : 31,250 кадров/сек (1536 SPF)
Метод сжатия                             : С потерями
Размер потока                            : 351 Мбайт (3%)
Заголовок                                : AVO | Ю. Немахов
Язык                                     : Russian
Service kind                             : Complete Main
Default                                  : Нет
Forced                                   : Нет
Statistics Tags Issue                    : mkvmerge v7.1.0 ('Good Love') 64bit built on Jul 27 2014 13:06:55 2020-05-01 12:35:05 / mkvmerge v5.8.0 ('No Sleep / Pillow') built on Sep  2 2012 15:37:04 2020-07-17 14:23:54
FromStats_BitRate                        : 384000
FromStats_Duration                       : 02:07:41.760000000
FromStats_FrameCount                     : 239430
FromStats_StreamSize                     : 367764480
Duration_Source                          : General_Duration

Аудио #6
Идентификатор                            : 7
Формат                                   : AC-3
Формат/Информация                        : Audio Coding 3
Коммерческое название                    : Dolby Digital
Идентификатор кодека                     : A_AC3
Продолжительность                        : 2 ч. 7 м.
Вид битрейта                             : Постоянный
Битрейт                                  : 448 Кбит/сек
Каналы                                   : 6 каналов
Channel layout                           : L R C LFE Ls Rs
Частота                                  : 48,0 КГц
Частота кадров                           : 31,250 кадров/сек (1536 SPF)
Метод сжатия                             : С потерями
Размер потока                            : 409 Мбайт (3%)
Язык                                     : English
Service kind                             : Complete Main
Default                                  : Нет
Forced                                   : Нет
Statistics Tags Issue                    : mkvmerge v7.1.0 ('Good Love') 64bit built on Jul 27 2014 13:06:55 2020-05-01 12:35:05 / mkvmerge v5.8.0 ('No Sleep / Pillow') built on Sep  2 2012 15:37:04 2020-07-17 14:23:54
FromStats_BitRate                        : 448000
FromStats_Duration                       : 02:07:41.760000000
FromStats_FrameCount                     : 239430
FromStats_StreamSize                     : 429058560
Duration_Source                          : General_Duration

Текст
Идентификатор                            : 8
Формат                                   : UTF-8
Идентификатор кодека                     : S_TEXT/UTF8
Идентификатор кодека/Информация          : UTF-8 Plain Text
Заголовок                                : SDH
Язык                                     : English
Default                                  : Нет
Forced                                   : Нет
Statistics Tags Issue                    : mkvmerge v7.1.0 ('Good Love') 64bit built on Jul 27 2014 13:06:55 2020-05-01 12:35:05 / mkvmerge v5.8.0 ('No Sleep / Pillow') built on Sep  2 2012 15:37:04 2020-07-17 14:23:54
FromStats_BitRate                        : 89
FromStats_Duration                       : 02:06:05.475000000
FromStats_FrameCount                     : 2175
FromStats_StreamSize                     : 84684

Меню
00:00:00.000                             : en:Chapter 1
00:11:28.771                             : en:Chapter 2
00:23:47.551                             : en:Chapter 3
00:34:54.634                             : en:Chapter 4
00:46:43.300                             : en:Chapter 5
00:56:40.563                             : en:Chapter 6
01:07:45.102                             : en:Chapter 7
01:18:26.243                             : en:Chapter 8
01:30:19.747                             : en:Chapter 9
01:41:27.289                             : en:Chapter 10
01:54:08.007                             : en:Chapter 11
01:59:29.537                             : en:Chapter 12
02:07:39.652                             : en:Chapter 13

http://3.lostpic.net/images/2020/07/17/9f715db508993781e41c8941f71496e2.th.png http://3.lostpic.net/images/2020/07/17/67efc3c3b1f9a3fe2e627cce109b18e3.th.png http://3.lostpic.net/images/2020/07/17/f53db9c90b0bca81900c39e6a13911a0.th.png http://3.lostpic.net/images/2020/07/17/3f5d0919732584e1fc9adbb48c7d1e98.th.png http://3.lostpic.net/images/2020/07/17/fd1d0a75a7de76a77021b49d8f0e56ff.th.png http://3.lostpic.net/images/2020/07/17/6c233891c3943e02941211cd0223f5cf.th.png http://3.lostpic.net/images/2020/07/17/1e330781ec378c40899102e17665c303.th.png http://3.lostpic.net/images/2020/07/17/a8ec003bf9fb2ebfc138e7ea17b10622.th.png http://3.lostpic.net/images/2020/07/17/eccada9c3a855f1f54a4f1335fbe50af.th.png http://3.lostpic.net/images/2020/07/17/d1a6e8a62fa52e36c115fba9f9bed474.th.png http://3.lostpic.net/images/2020/07/17/c462045e04365707e225d1966a012c01.th.png  


Привет, гость
- Запомнить
Регистрация
Информация

Торрент трекер ExKinoRay.TV

Здесь вы можете скачать новые фильмы, сериалы, игры, музыку, софт и многое другое. Большая скорость скачивания на мультитрекерных раздачах. Всё абсолютно бесплатно.