Мелодии Верийского квартала | 1973 | WEBRip-AVC | - KORSAR Одобрено администрацией

Участники
  • Раздают2
  • Качают0
  • Просмотров47
  • Скачали0
  • Комментариев0
  • Список файлов1
Залил раздачу
Поблагодарить
Никто
Характеристики
Вес4.61 GB (4,950,483,111)
Залит2020-08-26 20:40:28 Обновлено0000-00-00 00:00:00
Сетевая Нет
   https://a.radikal.ru/a20/1803/8d/0323a36ccadd.gif
Чтобы скачать, необходимо авторизоваться или зарегистрироваться.
Статус: Одобрено администрацией
Хотите видеть детали Раздачи пройдите авторизацию или регистрацию!

Спасибо за понимание...
Просьба отключить блокировщики рекламы на странице скриншотов по адресу: http://3.lostpic.net/, этим Вы поможете существованию проекта. Заранее спасибо!
x264 [info]: frame I:780   Avg QP:17.84  size:132192
x264 [info]: frame P:34660 Avg QP:19.33  size: 66520
x264 [info]: frame B:103410 Avg QP:21.31  size: 20054
x264 [info]: consecutive B-frames:  1.7%  2.2%  5.8% 64.7% 10.9% 14.2%  0.4%  0.2%  0.0%  0.0%  0.0%
----------------------
Общее
Уникальный идентификатор                 : 213208200234526641392727185161186285755 (0xA06667DD669C53748608D1F6C03198BB)
Полное имя                               : D:\Мелодии Верийского квартала_1973-WEBRip-AVC_KORSAR.mkv
Формат                                   : Matroska
Версия формата                           : Version 2
Размер файла                             : 4,61 Гбайт
Продолжительность                        : 1 ч. 32 м.
Общий поток                              : 7 131 Кбит/сек
Название фильма                          : Мелодии Верийского квартала_1973-WEBRip-AVC_KORSAR
Дата кодирования                         : UTC 2020-07-17 13:49:33
Программа кодирования                    : mkvmerge v5.8.0 ('No Sleep / Pillow') built on Sep  2 2012 15:37:04
Библиотека кодирования                   : libebml v1.2.3 + libmatroska v1.3.0

Видео
Идентификатор                            : 1
Формат                                   : AVC
Формат/Информация                        : Advanced Video Codec
Профиль формата                          : High@L4.1
Настройки формата                        : CABAC / 14 Ref Frames
Параметр CABAC формата                   : Да
Параметр RefFrames формата               : 14 кадров
Идентификатор кодека                     : V_MPEG4/ISO/AVC
Продолжительность                        : 1 ч. 32 м.
Битрейт                                  : 6 317 Кбит/сек
Ширина                                   : 1 156 пикселей
Высота                                   : 496 пикселей
Соотношение сторон                       : 2,35:1
Режим частоты кадров                     : Постоянный
Частота кадров                           : 25,000 кадров/сек
Цветовое пространство                    : YUV
Субдискретизация насыщенности            : 4:2:0
Битовая глубина                          : 8 бит
Тип развёртки                            : Прогрессивная
Бит/(Пиксели*Кадры)                      : 0.441
Размер потока                            : 4,08 Гбайт (89%)
Библиотека кодирования                   : x264 core 152 r2851kMod ba24899
Настройки программы                      : cabac=1 / ref=14 / deblock=1:-2:-2 / analyse=0x3:0x113 / me=umh / subme=10 / psy=1 / fade_compensate=0.00 / psy_rd=1.05:0.10 / mixed_ref=1 / me_range=48 / chroma_me=1 / trellis=2 / 8x8dct=1 / cqm=0 / deadzone=21,11 / fast_pskip=1 / chroma_qp_offset=-3 / threads=4 / lookahead_threads=1 / sliced_threads=0 / nr=0 / decimate=1 / interlaced=0 / bluray_compat=0 / constrained_intra=0 / bframes=10 / b_pyramid=2 / b_adapt=2 / b_bias=0 / direct=1 / weightb=1 / open_gop=0 / weightp=2 / keyint=250 / keyint_min=25 / scenecut=40 / intra_refresh=0 / rc_lookahead=40 / rc=crf / mbtree=0 / crf=16.3000 / qcomp=0.63 / qpmin=0 / qpmax=33 / qpstep=4 / vbv_maxrate=50000 / vbv_bufsize=62500 / crf_max=0.0 / nal_hrd=none / filler=0 / ip_ratio=1.40 / pb_ratio=1.30 / aq=1:0.90
Язык                                     : English
Default                                  : Да
Forced                                   : Нет
Цветовой диапазон                        : Limited
Основные цвета                           : BT.709
Характеристики трансфера                 : BT.709
Коэффициенты матрицы                     : BT.709
Duration_Source                          : General_Duration

Аудио #1
Идентификатор                            : 2
Формат                                   : AC-3
Формат/Информация                        : Audio Coding 3
Коммерческое название                    : Dolby Digital
Идентификатор кодека                     : A_AC3
Продолжительность                        : 1 ч. 32 м.
Вид битрейта                             : Постоянный
Битрейт                                  : 448 Кбит/сек
Каналы                                   : 6 каналов
Channel layout                           : L R C LFE Ls Rs
Частота                                  : 48,0 КГц
Частота кадров                           : 31,250 кадров/сек (1536 SPF)
Метод сжатия                             : С потерями
Задержка видео                           : 560 мс.
Размер потока                            : 297 Мбайт (6%)
Язык                                     : Russian
Service kind                             : Complete Main
Default                                  : Да
Forced                                   : Нет
Duration_Source                          : General_Duration

Аудио #2
Идентификатор                            : 3
Формат                                   : AC-3
Формат/Информация                        : Audio Coding 3
Коммерческое название                    : Dolby Digital
Идентификатор кодека                     : A_AC3
Продолжительность                        : 1 ч. 32 м.
Вид битрейта                             : Постоянный
Битрейт                                  : 224 Кбит/сек
Каналы                                   : 2 канала
Channel layout                           : L R
Частота                                  : 48,0 КГц
Частота кадров                           : 31,250 кадров/сек (1536 SPF)
Метод сжатия                             : С потерями
Задержка видео                           : 560 мс.
Размер потока                            : 148 Мбайт (3%)
Язык                                     : Russian
Service kind                             : Complete Main
Default                                  : Нет
Forced                                   : Нет
Duration_Source                          : General_Duration

Меню
00:00:00.000                             : en:Chapter 01
00:04:45.440                             : en:Chapter 02
00:08:22.520                             : en:Chapter 03
00:14:39.240                             : en:Chapter 04
00:19:35.840                             : en:Chapter 05
00:24:26.400                             : en:Chapter 06
00:34:54.040                             : en:Chapter 07
00:43:33.320                             : en:Chapter 08
00:52:11.840                             : en:Chapter 09
00:58:28.280                             : en:Chapter 10
01:04:16.560                             : en:Chapter 11
01:08:48.680                             : en:Chapter 12
01:16:01.360                             : en:Chapter 13
01:22:37.560                             : en:Chapter 14
01:28:09.760                             : en:Chapter 15
https://img10.lostpic.net/2020/07/17/b44737e36c783e31ea0c5d6d3a968c20.th.png https://img10.lostpic.net/2020/07/17/0faa3fdd649ecf9eca854c0a7166451f.th.png https://img10.lostpic.net/2020/07/17/fcbcb4c2f4bec321b9a264c016bef676.th.png http://3.lostpic.net/images/2020/07/17/b12ce58df1567609de2895bd9c2d7baa.th.png http://3.lostpic.net/images/2020/07/17/ff47bc481b39c39db6e7e453bd9bbb6e.th.png http://3.lostpic.net/images/2020/07/17/9f2f9c3aa6443eadfaa09758e1480e3e.th.png http://3.lostpic.net/images/2020/07/17/b2e05f1767c0d9c274afd1f70ec98eb1.th.png http://3.lostpic.net/images/2020/07/17/0a244576fa3ad5ebda7e959118fcb45f.th.png http://3.lostpic.net/images/2020/07/17/7ebac20fa310f68c25ea6272f09b144e.th.png  


Привет, гость
- Запомнить
Регистрация
Информация

Торрент трекер ExKinoRay.TV

Здесь вы можете скачать новые фильмы, сериалы, игры, музыку, софт и многое другое. Большая скорость скачивания на мультитрекерных раздачах. Всё абсолютно бесплатно.