В городе Сочи темные ночи | 1989 | SATRip-AVC | - KORSAR Одобрено администрацией

Участники
  • Раздают0
  • Качают0
  • Просмотров46
  • Скачали0
  • Комментариев0
  • Список файлов1
Залил раздачу
Поблагодарить
Характеристики
Вес2.65 GB (2,843,753,230)
Залит2020-08-26 20:40:40 Обновлено2020-08-26 21:19:57
Сетевая Нет
   https://a.radikal.ru/a20/1803/8d/0323a36ccadd.gif
Чтобы скачать, необходимо авторизоваться или зарегистрироваться.
Статус: Одобрено администрацией
Хотите видеть детали Раздачи пройдите авторизацию или регистрацию!

Спасибо за понимание...
Просьба отключить блокировщики рекламы на странице скриншотов по адресу: http://3.lostpic.net/, этим Вы поможете существованию проекта. Заранее спасибо!
x264 [info]: frame I:811   Avg QP:17.39  size: 66498x264 [info]: frame P:42602 Avg QP:19.02  size: 33744x264 [info]: frame B:140163 Avg QP:21.05  size:  7122x264 [info]: consecutive B-frames:  1.4%  2.9% 14.5% 17.9% 29.6% 32.2%  1.4%  0.1%  0.0%  0.0%  0.0%Общее
Уникальный идентификатор                 : 254837537952685954095867993389684407025 (0xBFB7ECADFA7834A49C35DFB726E2BAF1)
Полное имя                               : D:\В городе Сочи тёмные ночи_1989-SATRip-AVC_KORSAR.mkv
Формат                                   : Matroska
Версия формата                           : Version 2
Размер файла                             : 2,65 Гбайт
Продолжительность                        : 2 ч. 2 м.
Общий поток                              : 3 098 Кбит/сек
Название фильма                          : В городе Сочи тёмные ночи_1989-SATRip-AVC_KORSAR
Дата кодирования                         : UTC 2020-07-18 09:19:59
Программа кодирования                    : mkvmerge v5.8.0 ('No Sleep / Pillow') built on Sep  2 2012 15:37:04
Библиотека кодирования                   : libebml v1.2.3 + libmatroska v1.3.0

Видео
Идентификатор                            : 1
Формат                                   : AVC
Формат/Информация                        : Advanced Video Codec
Профиль формата                          : High@L4.1
Настройки формата                        : CABAC / 15 Ref Frames
Параметр CABAC формата                   : Да
Параметр RefFrames формата               : 15 кадров
Идентификатор кодека                     : V_MPEG4/ISO/AVC
Продолжительность                        : 2 ч. 2 м.
Битрейт                                  : 2 653 Кбит/сек
Ширина                                   : 680 пикселей
Высота                                   : 508 пикселей
Соотношение сторон                       : 1,429
Соотношение сторон в оригинале           : 1,428
Режим частоты кадров                     : Постоянный
Частота кадров                           : 25,000 кадров/сек
Цветовое пространство                    : YUV
Субдискретизация насыщенности            : 4:2:0
Битовая глубина                          : 8 бит
Тип развёртки                            : Прогрессивная
Бит/(Пиксели*Кадры)                      : 0.307
Размер потока                            : 2,27 Гбайт (86%)
Библиотека кодирования                   : x264 core 152 r2851kMod ba24899
Настройки программы                      : cabac=1 / ref=15 / deblock=1:-2:-1 / analyse=0x3:0x133 / me=umh / subme=10 / psy=1 / fade_compensate=0.00 / psy_rd=1.05:0.10 / mixed_ref=1 / me_range=48 / chroma_me=1 / trellis=2 / 8x8dct=1 / cqm=0 / deadzone=21,11 / fast_pskip=1 / chroma_qp_offset=-3 / threads=4 / lookahead_threads=1 / sliced_threads=0 / nr=0 / decimate=1 / interlaced=0 / bluray_compat=0 / constrained_intra=0 / bframes=10 / b_pyramid=2 / b_adapt=2 / b_bias=0 / direct=1 / weightb=1 / open_gop=0 / weightp=2 / keyint=250 / keyint_min=25 / scenecut=40 / intra_refresh=0 / rc_lookahead=40 / rc=crf / mbtree=0 / crf=17.3000 / qcomp=0.63 / qpmin=0 / qpmax=33 / qpstep=4 / vbv_maxrate=50000 / vbv_bufsize=62500 / crf_max=0.0 / nal_hrd=none / filler=0 / ip_ratio=1.40 / pb_ratio=1.30 / aq=1:0.90
Язык                                     : English
Default                                  : Да
Forced                                   : Нет
Цветовой диапазон                        : Limited
Основные цвета                           : BT.601 PAL
Характеристики трансфера                 : BT.470 System B/G
Коэффициенты матрицы                     : BT.470 System B/G
Duration_Source                          : General_Duration

Аудио
Идентификатор                            : 2
Формат                                   : AC-3
Формат/Информация                        : Audio Coding 3
Коммерческое название                    : Dolby Digital
Идентификатор кодека                     : A_AC3
Продолжительность                        : 2 ч. 2 м.
Вид битрейта                             : Постоянный
Битрейт                                  : 384 Кбит/сек
Каналы                                   : 2 канала
Channel layout                           : L R
Частота                                  : 48,0 КГц
Частота кадров                           : 31,250 кадров/сек (1536 SPF)
Метод сжатия                             : С потерями
Размер потока                            : 336 Мбайт (12%)
Язык                                     : Russian
Service kind                             : Complete Main
Default                                  : Да
Forced                                   : Нет
Duration_Source                          : General_Duration

https://img11.lostpic.net/2020/07/18/83fe292a0a6c46319cb10a5159410000.th.png https://img11.lostpic.net/2020/07/18/b874eec39075bc2db1d6356145501055.th.png https://img11.lostpic.net/2020/07/18/ee6c4b9618a0c501b3b33a965856af9a.th.png https://img11.lostpic.net/2020/07/18/8461716d127de9b905d3b8ac69767f85.th.png https://img11.lostpic.net/2020/07/18/c51b69d70dd92cecd4ce0ea3baf10234.th.png  
Похожих раздач нет


Привет, гость
- Запомнить
Регистрация
Информация

Торрент трекер ExKinoRay.TV

Здесь вы можете скачать новые фильмы, сериалы, игры, музыку, софт и многое другое. Большая скорость скачивания на мультитрекерных раздачах. Всё абсолютно бесплатно.