Деревня Утка | 1976 | DVDRip-AVC | - KORSAR Одобрено администрацией

Участники
  • Раздают2
  • Качают0
  • Просмотров69
  • Скачали0
  • Комментариев0
  • Список файлов1
Залил раздачу
Поблагодарить
Характеристики
Вес2.70 GB (2,899,106,295)
Залит2020-08-26 20:42:54 Обновлено2020-08-26 21:28:59
Сетевая Нет
   https://a.radikal.ru/a20/1803/8d/0323a36ccadd.gif
Чтобы скачать, необходимо авторизоваться или зарегистрироваться.
Статус: Одобрено администрацией
Хотите видеть детали Раздачи пройдите авторизацию или регистрацию!

Спасибо за понимание...
Просьба отключить блокировщики рекламы на странице скриншотов по адресу: http://3.lostpic.net/, этим Вы поможете существованию проекта. Заранее спасибо!
x264 [info]: frame I:667   Avg QP:17.94  size: 91889x264 [info]: frame P:36772 Avg QP:19.98  size: 40450x264 [info]: frame B:88134 Avg QP:22.60  size: 11318x264 [info]: consecutive B-frames:  7.7%  3.1% 10.9% 39.7% 18.1% 18.1%  1.4%  0.5%  0.2%  0.1%  0.1%Общее
Уникальный идентификатор                 : 219052821625436491185910906762743284363 (0xA4CC09F289DDAA06A40D2D95B0F4828B)
Полное имя                               : D:\Деревня утка_1976-DVDRip-AVC_KORSAR.mkv
Формат                                   : Matroska
Версия формата                           : Version 2
Размер файла                             : 2,70 Гбайт
Продолжительность                        : 1 ч. 23 м.
Общий поток                              : 4 617 Кбит/сек
Дата кодирования                         : UTC 2020-08-16 15:47:27
Программа кодирования                    : mkvmerge v5.8.0 ('No Sleep / Pillow') built on Sep  2 2012 15:37:04
Библиотека кодирования                   : libebml v1.2.3 + libmatroska v1.3.0

Видео
Идентификатор                            : 1
Формат                                   : AVC
Формат/Информация                        : Advanced Video Codec
Профиль формата                          : High@L4.1
Настройки формата                        : CABAC / 16 Ref Frames
Параметр CABAC формата                   : Да
Параметр RefFrames формата               : 16 кадров
Идентификатор кодека                     : V_MPEG4/ISO/AVC
Продолжительность                        : 1 ч. 23 м.
Битрейт                                  : 3 966 Кбит/сек
Ширина                                   : 700 пикселей
Высота                                   : 564 пикселя
Соотношение сторон                       : 4:3
Режим частоты кадров                     : Постоянный
Частота кадров                           : 25,000 кадров/сек
Цветовое пространство                    : YUV
Субдискретизация насыщенности            : 4:2:0
Битовая глубина                          : 8 бит
Тип развёртки                            : Прогрессивная
Бит/(Пиксели*Кадры)                      : 0.402
Размер потока                            : 2,32 Гбайт (86%)
Библиотека кодирования                   : x264 core 152 r2851kMod ba24899
Настройки программы                      : cabac=1 / ref=16 / deblock=1:-2:-1 / analyse=0x3:0x133 / me=umh / subme=10 / psy=1 / fade_compensate=0.00 / psy_rd=1.05:0.10 / mixed_ref=1 / me_range=48 / chroma_me=1 / trellis=2 / 8x8dct=1 / cqm=0 / deadzone=21,11 / fast_pskip=1 / chroma_qp_offset=-3 / threads=4 / lookahead_threads=1 / sliced_threads=0 / nr=0 / decimate=1 / interlaced=0 / bluray_compat=0 / constrained_intra=0 / bframes=10 / b_pyramid=2 / b_adapt=2 / b_bias=0 / direct=1 / weightb=1 / open_gop=0 / weightp=2 / keyint=250 / keyint_min=25 / scenecut=40 / intra_refresh=0 / rc_lookahead=40 / rc=crf / mbtree=0 / crf=17.0000 / qcomp=0.63 / qpmin=0 / qpmax=33 / qpstep=4 / vbv_maxrate=50000 / vbv_bufsize=62500 / crf_max=0.0 / nal_hrd=none / filler=0 / ip_ratio=1.40 / pb_ratio=1.30 / aq=1:0.90
Язык                                     : English
Default                                  : Да
Forced                                   : Нет
Цветовой диапазон                        : Limited
Основные цвета                           : BT.601 PAL
Характеристики трансфера                 : BT.470 System B/G
Коэффициенты матрицы                     : BT.470 System B/G

Аудио #1
Идентификатор                            : 2
Формат                                   : AC-3
Формат/Информация                        : Audio Coding 3
Коммерческое название                    : Dolby Digital
Идентификатор кодека                     : A_AC3
Продолжительность                        : 1 ч. 23 м.
Вид битрейта                             : Постоянный
Битрейт                                  : 448 Кбит/сек
Каналы                                   : 6 каналов
Channel layout                           : L R C LFE Ls Rs
Частота                                  : 48,0 КГц
Частота кадров                           : 31,250 кадров/сек (1536 SPF)
Метод сжатия                             : С потерями
Задержка видео                           : 480 мс.
Размер потока                            : 268 Мбайт (10%)
Язык                                     : Russian
Service kind                             : Complete Main
Default                                  : Да
Forced                                   : Нет

Аудио #2
Идентификатор                            : 3
Формат                                   : AC-3
Формат/Информация                        : Audio Coding 3
Коммерческое название                    : Dolby Digital
Идентификатор кодека                     : A_AC3
Продолжительность                        : 1 ч. 23 м.
Вид битрейта                             : Постоянный
Битрейт                                  : 112 Кбит/сек
Каналы                                   : 1 канал
Channel layout                           : C
Частота                                  : 48,0 КГц
Частота кадров                           : 31,250 кадров/сек (1536 SPF)
Метод сжатия                             : С потерями
Задержка видео                           : 480 мс.
Размер потока                            : 67,1 Мбайт (2%)
Язык                                     : Russian
Service kind                             : Complete Main
Default                                  : Нет
Forced                                   : Нет

Меню
00:00:00.000                             : en:Chapter 01
00:04:07.880                             : en:Chapter 02
00:08:03.360                             : en:Chapter 03
00:12:02.800                             : en:Chapter 04
00:16:12.960                             : en:Chapter 05
00:21:16.880                             : en:Chapter 06
00:27:47.720                             : en:Chapter 07
00:32:33.000                             : en:Chapter 08
00:36:12.960                             : en:Chapter 09
00:44:28.080                             : en:Chapter 10
00:47:03.120                             : en:Chapter 11
00:54:22.480                             : en:Chapter 12
00:57:56.560                             : en:Chapter 13
01:03:07.200                             : en:Chapter 14
01:14:19.840                             : en:Chapter 15
01:19:29.440                             : en:Chapter 16

http://3.lostpic.net/images/2020/08/16/a3273d9065a6bff0b31ea4021ff024af.th.png http://3.lostpic.net/images/2020/08/16/d2a334cfbc30ee384f7d52710703aa3e.th.png http://3.lostpic.net/images/2020/08/16/2080a755914c179980abbb566691a6e4.th.png http://3.lostpic.net/images/2020/08/16/0e8e7fa174e4a59d85329c68f7edfc32.th.png  


Привет, гость
- Запомнить
Регистрация
Информация

Торрент трекер ExKinoRay.TV

Здесь вы можете скачать новые фильмы, сериалы, игры, музыку, софт и многое другое. Большая скорость скачивания на мультитрекерных раздачах. Всё абсолютно бесплатно.