Кубанские казаки | 1949 | BDRip 1080p | - KORSAR Одобрено администрацией

Участники
  • Раздают2
  • Качают0
  • Просмотров42
  • Скачали1
  • Комментариев0
  • Список файлов1
Залил раздачу
Поблагодарить
Характеристики
Вес8.53 GB (9,163,194,164)
Залит2020-08-26 20:43:07 Обновлено0000-00-00 00:00:00
Сетевая Нет
   https://a.radikal.ru/a20/1803/8d/0323a36ccadd.gif
Чтобы скачать, необходимо авторизоваться или зарегистрироваться.
Статус: Одобрено администрацией
Хотите видеть детали Раздачи пройдите авторизацию или регистрацию!

Спасибо за понимание...
Просьба отключить блокировщики рекламы на странице скриншотов по адресу: http://3.lostpic.net/, этим Вы поможете существованию проекта. Заранее спасибо!
x264 [info]: frame I:846   Avg QP:17.45  size:272610x264 [info]: frame P:36302 Avg QP:18.93  size:139633x264 [info]: frame B:119516 Avg QP:21.41  size: 29251x264 [info]: consecutive B-frames:  1.6%  2.5% 11.1% 27.5% 23.9% 32.0%  1.0%  0.2%  0.1%  0.1%Общее
Уникальный идентификатор                 : 218075491178258090261175381542721959835 (0xA40FCFD609D1E8F7A82392FBB94E379B)
Полное имя                               : D:\Кубанские казаки_1949-BDRip 1080p_KORSAR.mkv
Формат                                   : Matroska
Версия формата                           : Version 2
Размер файла                             : 8,53 Гбайт
Продолжительность                        : 1 ч. 48 м.
Общий поток                              : 11,2 Мбит/сек
Название фильма                          : Кубанские казаки_1949-BDRip 1080p_KORSAR
Дата кодирования                         : UTC 2020-08-18 15:59:23
Программа кодирования                    : mkvmerge v5.8.0 ('No Sleep / Pillow') built on Sep  2 2012 15:37:04
Библиотека кодирования                   : libebml v1.2.3 + libmatroska v1.3.0

Видео
Идентификатор                            : 1
Формат                                   : AVC
Формат/Информация                        : Advanced Video Codec
Профиль формата                          : High@L4.1
Настройки формата                        : CABAC / 5 Ref Frames
Параметр CABAC формата                   : Да
Параметр RefFrames формата               : 5 кадров
Идентификатор кодека                     : V_MPEG4/ISO/AVC
Продолжительность                        : 1 ч. 48 м.
Битрейт                                  : 10,5 Мбит/сек
Ширина                                   : 1 490 пикселей
Высота                                   : 1 080 пикселей
Соотношение сторон                       : 1,380
Режим частоты кадров                     : Постоянный
Частота кадров                           : 23,976 (24000/1001) кадра/сек
Цветовое пространство                    : YUV
Субдискретизация насыщенности            : 4:2:0
Битовая глубина                          : 8 бит
Тип развёртки                            : Прогрессивная
Бит/(Пиксели*Кадры)                      : 0.273
Размер потока                            : 8,02 Гбайт (94%)
Библиотека кодирования                   : x264 core 152 r2851kMod ba24899
Настройки программы                      : cabac=1 / ref=5 / deblock=1:-2:-2 / analyse=0x3:0x113 / me=umh / subme=10 / psy=1 / fade_compensate=0.00 / psy_rd=1.05:0.10 / mixed_ref=1 / me_range=48 / chroma_me=1 / trellis=2 / 8x8dct=1 / cqm=0 / deadzone=21,11 / fast_pskip=1 / chroma_qp_offset=-3 / threads=4 / lookahead_threads=1 / sliced_threads=0 / nr=0 / decimate=1 / interlaced=0 / bluray_compat=0 / constrained_intra=0 / bframes=9 / b_pyramid=2 / b_adapt=2 / b_bias=0 / direct=1 / weightb=1 / open_gop=0 / weightp=2 / keyint=250 / keyint_min=23 / scenecut=40 / intra_refresh=0 / rc_lookahead=40 / rc=crf / mbtree=0 / crf=17.3000 / qcomp=0.63 / qpmin=0 / qpmax=33 / qpstep=4 / vbv_maxrate=50000 / vbv_bufsize=62500 / crf_max=0.0 / nal_hrd=none / filler=0 / ip_ratio=1.40 / pb_ratio=1.30 / aq=1:0.70
Язык                                     : English
Default                                  : Да
Forced                                   : Нет
Цветовой диапазон                        : Limited
Основные цвета                           : BT.709
Характеристики трансфера                 : BT.709
Коэффициенты матрицы                     : BT.709

Аудио
Идентификатор                            : 2
Формат                                   : AC-3
Формат/Информация                        : Audio Coding 3
Коммерческое название                    : Dolby Digital
Идентификатор кодека                     : A_AC3
Продолжительность                        : 1 ч. 48 м.
Вид битрейта                             : Постоянный
Битрейт                                  : 448 Кбит/сек
Каналы                                   : 2 канала
Channel layout                           : L R
Частота                                  : 48,0 КГц
Частота кадров                           : 31,250 кадров/сек (1536 SPF)
Метод сжатия                             : С потерями
Размер потока                            : 349 Мбайт (4%)
Язык                                     : Russian
Service kind                             : Complete Main
Default                                  : Да
Forced                                   : Нет

Текст #1
Идентификатор                            : 3
Формат                                   : UTF-8
Идентификатор кодека                     : S_TEXT/UTF8
Идентификатор кодека/Информация          : UTF-8 Plain Text
Язык                                     : Russian
Default                                  : Нет
Forced                                   : Нет

Текст #2
Идентификатор                            : 4
Формат                                   : UTF-8
Идентификатор кодека                     : S_TEXT/UTF8
Идентификатор кодека/Информация          : UTF-8 Plain Text
Язык                                     : English
Default                                  : Нет
Forced                                   : Нет

Меню
00:00:00.000                             : ru:Глава 01
00:10:17.200                             : ru:Глава 02
00:21:23.616                             : ru:Глава 03
00:29:42.114                             : ru:Глава 04
00:40:52.241                             : ru:Глава 05
00:52:00.951                             : ru:Глава 06
01:04:18.480                             : ru:Глава 07
01:13:54.930                             : ru:Глава 08
01:25:37.382                             : ru:Глава 09
01:36:04.842  

https://img11.lostpic.net/2020/08/18/c76ee9cb1bfbfc07a3fc46579132f747.th.png https://img11.lostpic.net/2020/08/18/8c54b7a16b6de0ddbf08a8117cfe3665.th.png https://img11.lostpic.net/2020/08/18/cb37b9429d544e08348bdf0dbd0045cd.th.png https://img11.lostpic.net/2020/08/18/d2c7ede3bced348b5ee808ee97105945.th.png https://img11.lostpic.net/2020/08/18/47052b35b614c54a36284f21cdfb4477.th.png https://img11.lostpic.net/2020/08/18/d85d87711c4a4abb7d93a050fef9003a.th.png https://img11.lostpic.net/2020/08/18/dfa2c8aeacc3e55de9380ecce194cc68.th.png  


Привет, гость
- Запомнить
Регистрация
Информация

Торрент трекер ExKinoRay.TV

Здесь вы можете скачать новые фильмы, сериалы, игры, музыку, софт и многое другое. Большая скорость скачивания на мультитрекерных раздачах. Всё абсолютно бесплатно.