Кубанские казаки | 1949 | BDRip 720p | - KORSAR Одобрено администрацией

Участники
  • Раздают0
  • Качают0
  • Просмотров48
  • Скачали0
  • Комментариев0
  • Список файлов1
Залил раздачу
Поблагодарить
Характеристики
Вес3.94 GB (4,235,356,516)
Залит2020-08-26 20:43:18 Обновлено0000-00-00 00:00:00
Сетевая Нет
   https://a.radikal.ru/a20/1803/8d/0323a36ccadd.gif
Чтобы скачать, необходимо авторизоваться или зарегистрироваться.
Статус: Одобрено администрацией
Хотите видеть детали Раздачи пройдите авторизацию или регистрацию!

Спасибо за понимание...
Просьба отключить блокировщики рекламы на странице скриншотов по адресу: http://3.lostpic.net/, этим Вы поможете существованию проекта. Заранее спасибо!
x264 [info]: frame I:868   Avg QP:16.87  size:145161x264 [info]: frame P:38598 Avg QP:18.45  size: 59282x264 [info]: frame B:117198 Avg QP:21.10  size: 12404x264 [info]: consecutive B-frames:  2.0%  2.9% 12.9% 36.9% 22.0% 21.5%  1.1%  0.4%  0.1%  0.2%Общее
Уникальный идентификатор                 : 176857498125548808276656682121291446785 (0x850D83E110276833A629AEB486BD3A01)
Полное имя                               : D:\Кубанские казаки_1949-BDRip 720p_KORSAR.mkv
Формат                                   : Matroska
Версия формата                           : Version 2
Размер файла                             : 3,94 Гбайт
Продолжительность                        : 1 ч. 48 м.
Общий поток                              : 5 185 Кбит/сек
Название фильма                          : Кубанские казаки_1949-BDRip 720p_KORSAR
Дата кодирования                         : UTC 2020-08-18 20:36:31
Программа кодирования                    : mkvmerge v5.8.0 ('No Sleep / Pillow') built on Sep  2 2012 15:37:04
Библиотека кодирования                   : libebml v1.2.3 + libmatroska v1.3.0

Видео
Идентификатор                            : 1
Формат                                   : AVC
Формат/Информация                        : Advanced Video Codec
Профиль формата                          : High@L4.1
Настройки формата                        : CABAC / 11 Ref Frames
Параметр CABAC формата                   : Да
Параметр RefFrames формата               : 11 кадров
Идентификатор кодека                     : V_MPEG4/ISO/AVC
Продолжительность                        : 1 ч. 48 м.
Битрейт                                  : 4 634 Кбит/сек
Ширина                                   : 994 пикселя
Высота                                   : 720 пикселей
Соотношение сторон                       : 1,381
Режим частоты кадров                     : Постоянный
Частота кадров                           : 23,976 (24000/1001) кадра/сек
Цветовое пространство                    : YUV
Субдискретизация насыщенности            : 4:2:0
Битовая глубина                          : 8 бит
Тип развёртки                            : Прогрессивная
Бит/(Пиксели*Кадры)                      : 0.270
Размер потока                            : 3,53 Гбайт (89%)
Библиотека кодирования                   : x264 core 152 r2851kMod ba24899
Настройки программы                      : cabac=1 / ref=11 / deblock=1:-2:-2 / analyse=0x3:0x113 / me=umh / subme=10 / psy=1 / fade_compensate=0.00 / psy_rd=1.05:0.10 / mixed_ref=1 / me_range=48 / chroma_me=1 / trellis=2 / 8x8dct=1 / cqm=0 / deadzone=21,11 / fast_pskip=1 / chroma_qp_offset=-3 / threads=4 / lookahead_threads=1 / sliced_threads=0 / nr=0 / decimate=1 / interlaced=0 / bluray_compat=0 / constrained_intra=0 / bframes=9 / b_pyramid=2 / b_adapt=2 / b_bias=0 / direct=1 / weightb=1 / open_gop=0 / weightp=2 / keyint=250 / keyint_min=23 / scenecut=40 / intra_refresh=0 / rc_lookahead=40 / rc=crf / mbtree=0 / crf=16.5000 / qcomp=0.63 / qpmin=0 / qpmax=33 / qpstep=4 / vbv_maxrate=50000 / vbv_bufsize=62500 / crf_max=0.0 / nal_hrd=none / filler=0 / ip_ratio=1.40 / pb_ratio=1.30 / aq=1:0.70
Язык                                     : English
Default                                  : Да
Forced                                   : Нет
Цветовой диапазон                        : Limited
Основные цвета                           : BT.709
Характеристики трансфера                 : BT.709
Коэффициенты матрицы                     : BT.709

Аудио
Идентификатор                            : 2
Формат                                   : AC-3
Формат/Информация                        : Audio Coding 3
Коммерческое название                    : Dolby Digital
Идентификатор кодека                     : A_AC3
Продолжительность                        : 1 ч. 48 м.
Вид битрейта                             : Постоянный
Битрейт                                  : 448 Кбит/сек
Каналы                                   : 2 канала
Channel layout                           : L R
Частота                                  : 48,0 КГц
Частота кадров                           : 31,250 кадров/сек (1536 SPF)
Метод сжатия                             : С потерями
Размер потока                            : 349 Мбайт (9%)
Язык                                     : Russian
Service kind                             : Complete Main
Default                                  : Да
Forced                                   : Нет

Текст #1
Идентификатор                            : 3
Формат                                   : UTF-8
Идентификатор кодека                     : S_TEXT/UTF8
Идентификатор кодека/Информация          : UTF-8 Plain Text
Язык                                     : Russian
Default                                  : Нет
Forced                                   : Нет

Текст #2
Идентификатор                            : 4
Формат                                   : UTF-8
Идентификатор кодека                     : S_TEXT/UTF8
Идентификатор кодека/Информация          : UTF-8 Plain Text
Язык                                     : English
Default                                  : Нет
Forced                                   : Нет

Меню
00:00:00.000                             : ru:Глава 01
00:10:17.200                             : ru:Глава 02
00:21:23.616                             : ru:Глава 03
00:29:42.114                             : ru:Глава 04
00:40:52.241                             : ru:Глава 05
00:52:00.951                             : ru:Глава 06
01:04:18.480                             : ru:Глава 07
01:13:54.930                             : ru:Глава 08
01:25:37.382                             : ru:Глава 09
01:36:04.842                             : ru:Глава 10

https://img11.lostpic.net/2020/08/18/ccd819492cab40080b95be4e1e5eecbd.th.png https://img11.lostpic.net/2020/08/18/67f314861b913119845af1a4fca6ed86.th.png https://img11.lostpic.net/2020/08/18/b458ad00f28a337ddd1f6ae1d292365a.th.png https://img11.lostpic.net/2020/08/18/2069a506f08e49a5522b91f907a83482.th.png https://img11.lostpic.net/2020/08/18/80c07710372591f797e18b5a14563a2b.th.png https://img11.lostpic.net/2020/08/18/07241480a41eb1d62116fd71f5887bfd.th.png https://img11.lostpic.net/2020/08/18/e2f11519c83b86ed54d5101917feb60d.th.png https://img11.lostpic.net/2020/08/18/062d097925f8db0d9a731586b3327bd1.th.png https://img11.lostpic.net/2020/08/18/1e281e351c23d75a854401aed6ba81aa.th.png  


Привет, гость
- Запомнить
Регистрация
Информация

Торрент трекер ExKinoRay.TV

Здесь вы можете скачать новые фильмы, сериалы, игры, музыку, софт и многое другое. Большая скорость скачивания на мультитрекерных раздачах. Всё абсолютно бесплатно.