Территория | 1978 | WEBRip-AVC | - KORSAR Одобрено администрацией

Участники
  • Раздают4
  • Качают0
  • Просмотров43
  • Скачали0
  • Комментариев0
  • Список файлов1
Залил раздачу
Поблагодарить
Характеристики
Вес2.18 GB (2,340,491,373)
Залит2020-08-26 20:44:53 Обновлено2020-08-26 21:38:09
Сетевая Нет
   https://a.radikal.ru/a20/1803/8d/0323a36ccadd.gif
Чтобы скачать, необходимо авторизоваться или зарегистрироваться.
Статус: Одобрено администрацией
Хотите видеть детали Раздачи пройдите авторизацию или регистрацию!

Спасибо за понимание...
Просьба отключить блокировщики рекламы на странице скриншотов по адресу: http://3.lostpic.net/, этим Вы поможете существованию проекта. Заранее спасибо!
x264 [info]: frame I:676   Avg QP:15.94  size: 99784x264 [info]: frame P:27750 Avg QP:17.69  size: 40273x264 [info]: frame B:110699 Avg QP:19.26  size:  9378x264 [info]: consecutive B-frames:  1.2%  1.8%  6.0%  9.0% 23.1% 48.1%  7.1%  1.5%  0.8%  0.7%  0.1%  0.5%  0.1%Общее
Уникальный идентификатор                 : 174220697822705432896340260984001193107 (0x8311AF9648516A378F77C67B0750E493)
Полное имя                               : D:\Территория_1978-WEBRip-AVC_KORSAR.mkv
Формат                                   : Matroska
Версия формата                           : Version 2
Размер файла                             : 2,18 Гбайт
Продолжительность                        : 1 ч. 36 м.
Общий поток                              : 3 230 Кбит/сек
Дата кодирования                         : UTC 2020-08-22 16:57:05
Программа кодирования                    : mkvmerge v5.8.0 ('No Sleep / Pillow') built on Sep  2 2012 15:37:04
Библиотека кодирования                   : libebml v1.2.3 + libmatroska v1.3.0

Видео
Идентификатор                            : 1
Формат                                   : AVC
Формат/Информация                        : Advanced Video Codec
Профиль формата                          : High@L4.1
Настройки формата                        : CABAC / 12 Ref Frames
Параметр CABAC формата                   : Да
Параметр RefFrames формата               : 12 кадров
Идентификатор кодека                     : V_MPEG4/ISO/AVC
Продолжительность                        : 1 ч. 36 м.
Битрейт                                  : 3 006 Кбит/сек
Ширина                                   : 898 пикселей
Высота                                   : 648 пикселей
Соотношение сторон                       : 1,386
Режим частоты кадров                     : Постоянный
Частота кадров                           : 24,000 кадра/сек
Цветовое пространство                    : YUV
Субдискретизация насыщенности            : 4:2:0
Битовая глубина                          : 8 бит
Тип развёртки                            : Прогрессивная
Бит/(Пиксели*Кадры)                      : 0.215
Размер потока                            : 2,03 Гбайт (93%)
Библиотека кодирования                   : x264 core 152 r2851kMod ba24899
Настройки программы                      : cabac=1 / ref=12 / deblock=1:-2:-2 / analyse=0x3:0x113 / me=umh / subme=10 / psy=1 / fade_compensate=0.00 / psy_rd=1.05:0.10 / mixed_ref=1 / me_range=48 / chroma_me=1 / trellis=2 / 8x8dct=1 / cqm=0 / deadzone=21,11 / fast_pskip=1 / chroma_qp_offset=-3 / threads=12 / lookahead_threads=3 / sliced_threads=0 / nr=0 / decimate=1 / interlaced=0 / bluray_compat=0 / constrained_intra=0 / bframes=12 / b_pyramid=2 / b_adapt=2 / b_bias=0 / direct=1 / weightb=1 / open_gop=0 / weightp=2 / keyint=240 / keyint_min=24 / scenecut=40 / intra_refresh=0 / rc=crf / mbtree=0 / crf=18.3000 / qcomp=0.63 / qpmin=0 / qpmax=30 / qpstep=4 / ip_ratio=1.40 / pb_ratio=1.30 / aq=1:1.00
Язык                                     : English
Default                                  : Да
Forced                                   : Нет
Цветовой диапазон                        : Limited
Основные цвета                           : BT.709
Характеристики трансфера                 : BT.709
Коэффициенты матрицы                     : BT.709

Аудио
Идентификатор                            : 2
Формат                                   : AC-3
Формат/Информация                        : Audio Coding 3
Коммерческое название                    : Dolby Digital
Идентификатор кодека                     : A_AC3
Продолжительность                        : 1 ч. 36 м.
Вид битрейта                             : Постоянный
Битрейт                                  : 160 Кбит/сек
Каналы                                   : 2 канала
Channel layout                           : L R
Частота                                  : 44,1 КГц
Частота кадров                           : 28,711 кадров/сек (1536 SPF)
Метод сжатия                             : С потерями
Размер потока                            : 111 Мбайт (5%)
Язык                                     : Russian
Service kind                             : Complete Main
Default                                  : Да
Forced                                   : Нет

http://3.lostpic.net/images/2020/08/22/94c1251c16834358e4396ad70c51dbaf.th.png http://3.lostpic.net/images/2020/08/22/cf17b90b8be1c1d0c7a243263adb8f65.th.png http://3.lostpic.net/images/2020/08/22/53c44db8e6f48f243b6b098fd53efeb3.th.png http://3.lostpic.net/images/2020/08/22/2ba8bd20b0b097a38255dcff7862d424.th.png http://3.lostpic.net/images/2020/08/22/383d406fea58431670d2ac622c79715a.th.png http://3.lostpic.net/images/2020/08/22/5991a2e96edd6692bb7731334395dd50.th.png http://3.lostpic.net/images/2020/08/22/445af06bb874658c2d742b818bc5923e.th.png http://3.lostpic.net/images/2020/08/22/72f1689a9514bf52ba87c8f4cf6911ca.th.png  


Привет, гость
- Запомнить
Регистрация
Информация

Торрент трекер ExKinoRay.TV

Здесь вы можете скачать новые фильмы, сериалы, игры, музыку, софт и многое другое. Большая скорость скачивания на мультитрекерных раздачах. Всё абсолютно бесплатно.