Святой | The Saint | 1997 | WEB-DL 1080p | - KORSAR Одобрено администрацией

Участники
  • Раздают0
  • Качают3
  • Просмотров51
  • Скачали1
  • Комментариев0
  • Список файлов1
Залил раздачу
Поблагодарить
Характеристики
Вес12.92 GB (13,870,917,760)
Залит2020-08-26 20:53:50 Обновлено2020-08-26 21:55:33
Сетевая Нет
   https://a.radikal.ru/a20/1803/8d/0323a36ccadd.gif
Чтобы скачать, необходимо авторизоваться или зарегистрироваться.
Статус: Одобрено администрацией
Хотите видеть детали Раздачи пройдите авторизацию или регистрацию!

Спасибо за понимание...
Просьба отключить блокировщики рекламы на странице скриншотов по адресу: http://3.lostpic.net/, этим Вы поможете существованию проекта. Заранее спасибо!
Общее
Уникальный идентификатор                 : 214436554334883946820049457753132975796 (0xA152FA65D769E7B6A7A21AA4D97146B4)
Полное имя                               : Святой.1997.WEB-DL.1080p.mkv
Формат                                   : Matroska
Версия формата                           : Version 2
Размер файла                             : 12,9 Гбайт
Продолжительность                        : 1 ч. 56 м.
Режим общего битрейта                    : Переменный
Общий поток                              : 15,9 Мбит/сек
Дата кодирования                         : UTC 2018-05-29 22:44:23
Программа кодирования                    : mkvmerge v5.8.0 ('No Sleep / Pillow') built on Sep  2 2012 15:37:04
Библиотека кодирования                   : libebml v1.2.3 + libmatroska v1.3.0

Видео
Идентификатор                            : 1
Формат                                   : AVC
Формат/Информация                        : Advanced Video Codec
Профиль формата                          : High@L4
Настройки формата                        : CABAC / 4 Ref Frames
Параметр CABAC формата                   : Да
Параметр RefFrames формата               : 4 кадра
Идентификатор кодека                     : V_MPEG4/ISO/AVC
Продолжительность                        : 1 ч. 56 м.
Вид битрейта                             : Переменный
Битрейт                                  : 12,0 Мбит/сек
Максимальный битрейт                     : 15,0 Мбит/сек
Ширина                                   : 1920 пикселей
Высота                                   : 816 пикселей
Соотношение сторон                       : 2,35:1
Режим частоты кадров                     : Постоянный
Частота кадров                           : 23,976 (24000/1001) кадра/сек
Цветовое пространство                    : YUV
Субдискретизация насыщенности            : 4:2:0
Битовая глубина                          : 8 бит
Тип развёртки                            : Прогрессивная
Бит/(Пиксели*Кадры)                      : 0.318
Размер потока                            : 9,70 Гбайт (75%)
Язык                                     : English
Default                                  : Да
Forced                                   : Нет
Цветовой диапазон                        : Limited
Основные цвета                           : BT.709
Характеристики трансфера                 : BT.709
Коэффициенты матрицы                     : BT.709

Аудио #1
Идентификатор                            : 2
Формат                                   : AC-3
Формат/Информация                        : Audio Coding 3
Идентификатор кодека                     : A_AC3
Продолжительность                        : 1 ч. 56 м.
Вид битрейта                             : Постоянный
Битрейт                                  : 384 Кбит/сек
Каналы                                   : 2 канала
Расположение каналов                     : Front: L R
Частота                                  : 48,0 КГц
Частота кадров                           : 31,250 кадров/сек (1536 SPF)
Битовая глубина                          : 16 бит
Метод сжатия                             : С потерями
Размер потока                            : 319 Мбайт (2%)
Заголовок                                : DUB | Премьер Видео Фильм
Язык                                     : Russian
По умолчанию                             : Да
Принудительно                            : Нет

Аудио #2
Идентификатор                            : 3
Формат                                   : AC-3
Формат/Информация                        : Audio Coding 3
Идентификатор кодека                     : A_AC3
Продолжительность                        : 1 ч. 56 м.
Вид битрейта                             : Постоянный
Битрейт                                  : 192 Кбит/сек
Каналы                                   : 2 канала
Расположение каналов                     : Front: L R
Частота                                  : 48,0 КГц
Частота кадров                           : 31,250 кадров/сек (1536 SPF)
Битовая глубина                          : 16 бит
Метод сжатия                             : С потерями
Размер потока                            : 160 Мбайт (1%)
Заголовок                                : MVO | НТВ
Язык                                     : Russian
По умолчанию                             : Нет
Принудительно                            : Нет

Аудио #3
Идентификатор                            : 4
Формат                                   : AC-3
Формат/Информация                        : Audio Coding 3
Идентификатор кодека                     : A_AC3
Продолжительность                        : 1 ч. 56 м.
Вид битрейта                             : Постоянный
Битрейт                                  : 384 Кбит/сек
Каналы                                   : 5 каналов
Расположение каналов                     : Front: L C R, Side: L R
Частота                                  : 48,0 КГц
Частота кадров                           : 31,250 кадров/сек (1536 SPF)
Битовая глубина                          : 16 бит
Метод сжатия                             : С потерями
Размер потока                            : 319 Мбайт (2%)
Заголовок                                : MVO | Карусель
Язык                                     : Russian
По умолчанию                             : Нет
Принудительно                            : Нет

Аудио #4
Идентификатор                            : 5
Формат                                   : AC-3
Формат/Информация                        : Audio Coding 3
Идентификатор кодека                     : A_AC3
Продолжительность                        : 1 ч. 56 м.
Вид битрейта                             : Постоянный
Битрейт                                  : 192 Кбит/сек
Каналы                                   : 2 канала
Расположение каналов                     : Front: L R
Частота                                  : 48,0 КГц
Частота кадров                           : 31,250 кадров/сек (1536 SPF)
Битовая глубина                          : 16 бит
Метод сжатия                             : С потерями
Размер потока                            : 160 Мбайт (1%)
Заголовок                                : MVO | ТВ3
Язык                                     : Russian
По умолчанию                             : Нет
Принудительно                            : Нет

Аудио #5
Идентификатор                            : 6
Формат                                   : AC-3
Формат/Информация                        : Audio Coding 3
Идентификатор кодека                     : A_AC3
Продолжительность                        : 1 ч. 56 м.
Вид битрейта                             : Постоянный
Битрейт                                  : 448 Кбит/сек
Каналы                                   : 6 каналов
Расположение каналов                     : Front: L C R, Side: L R, LFE
Частота                                  : 48,0 КГц
Частота кадров                           : 31,250 кадров/сек (1536 SPF)
Битовая глубина                          : 16 бит
Метод сжатия                             : С потерями
Размер потока                            : 372 Мбайт (3%)
Заголовок                                : AVO | Диктор CDV
Язык                                     : Russian
По умолчанию                             : Нет
Принудительно                            : Нет

Аудио #6
Идентификатор                            : 7
Формат                                   : AC-3
Формат/Информация                        : Audio Coding 3
Идентификатор кодека                     : A_AC3
Продолжительность                        : 1 ч. 56 м.
Вид битрейта                             : Постоянный
Битрейт                                  : 384 Кбит/сек
Каналы                                   : 6 каналов
Расположение каналов                     : Front: L C R, Side: L R, LFE
Частота                                  : 48,0 КГц
Частота кадров                           : 31,250 кадров/сек (1536 SPF)
Битовая глубина                          : 16 бит
Метод сжатия                             : С потерями
Размер потока                            : 319 Мбайт (2%)
Заголовок                                : AVO | Ю. Живов
Язык                                     : Russian
По умолчанию                             : Нет
Принудительно                            : Нет

Аудио #7
Идентификатор                            : 8
Формат                                   : AC-3
Формат/Информация                        : Audio Coding 3
Идентификатор кодека                     : A_AC3
Продолжительность                        : 1 ч. 56 м.
Вид битрейта                             : Постоянный
Битрейт                                  : 192 Кбит/сек
Каналы                                   : 2 канала
Расположение каналов                     : Front: L R
Частота                                  : 48,0 КГц
Частота кадров                           : 31,250 кадров/сек (1536 SPF)
Битовая глубина                          : 16 бит
Метод сжатия                             : С потерями
Размер потока                            : 160 Мбайт (1%)
Заголовок                                : VO | А. Толмачев
Язык                                     : Russian
По умолчанию                             : Нет
Принудительно                            : Нет

Аудио #8
Идентификатор                            : 9
Формат                                   : AC-3
Формат/Информация                        : Audio Coding 3
Идентификатор кодека                     : A_AC3
Продолжительность                        : 1 ч. 56 м.
Вид битрейта                             : Постоянный
Битрейт                                  : 224 Кбит/сек
Каналы                                   : 2 канала
Расположение каналов                     : Front: L R
Частота                                  : 48,0 КГц
Частота кадров                           : 31,250 кадров/сек (1536 SPF)
Битовая глубина                          : 16 бит
Метод сжатия                             : С потерями
Размер потока                            : 186 Мбайт (1%)
Заголовок                                : VO | Н. Антонов, Буратино
Язык                                     : Russian
По умолчанию                             : Нет
Принудительно                            : Нет

Аудио #9
Идентификатор                            : 10
Формат                                   : AC-3
Формат/Информация                        : Audio Coding 3
Идентификатор кодека                     : A_AC3
Продолжительность                        : 1 ч. 56 м.
Вид битрейта                             : Постоянный
Битрейт                                  : 192 Кбит/сек
Каналы                                   : 2 канала
Расположение каналов                     : Front: L R
Частота                                  : 48,0 КГц
Частота кадров                           : 31,250 кадров/сек (1536 SPF)
Битовая глубина                          : 16 бит
Метод сжатия                             : С потерями
Размер потока                            : 160 Мбайт (1%)
Заголовок                                : MVO | ICTV
Язык                                     : Ukrainian
По умолчанию                             : Нет
Принудительно                            : Нет

Аудио #10
Идентификатор                            : 11
Формат                                   : AC-3
Формат/Информация                        : Audio Coding 3
Идентификатор кодека                     : A_AC3
Продолжительность                        : 1 ч. 56 м.
Вид битрейта                             : Постоянный
Битрейт                                  : 192 Кбит/сек
Каналы                                   : 2 канала
Расположение каналов                     : Front: L R
Частота                                  : 48,0 КГц
Частота кадров                           : 31,250 кадров/сек (1536 SPF)
Битовая глубина                          : 16 бит
Метод сжатия                             : С потерями
Размер потока                            : 160 Мбайт (1%)
Заголовок                                : MVO | ІНТЕР
Язык                                     : Ukrainian
По умолчанию                             : Нет
Принудительно                            : Нет

Аудио #11
Идентификатор                            : 12
Формат                                   : E-AC-3
Формат/Информация                        : Enhanced Audio Coding 3
Идентификатор кодека                     : A_EAC3
Продолжительность                        : 1 ч. 56 м.
Вид битрейта                             : Постоянный
Битрейт                                  : 640 Кбит/сек
Каналы                                   : 6 каналов
Расположение каналов                     : Front: L C R, Side: L R, LFE
Частота                                  : 48,0 КГц
Частота кадров                           : 187,500 кадров/сек (256 SPF)
Метод сжатия                             : С потерями
Размер потока                            : 532 Мбайт (4%)
Заголовок                                : Original | 5.1
Язык                                     : English
По умолчанию                             : Нет
Принудительно                            : Нет

Аудио #12
Идентификатор                            : 13
Формат                                   : E-AC-3
Формат/Информация                        : Enhanced Audio Coding 3
Идентификатор кодека                     : A_EAC3
Продолжительность                        : 1 ч. 56 м.
Вид битрейта                             : Постоянный
Битрейт                                  : 224 Кбит/сек
Каналы                                   : 2 канала
Расположение каналов                     : Front: L R
Частота                                  : 48,0 КГц
Частота кадров                           : 187,500 кадров/сек (256 SPF)
Метод сжатия                             : С потерями
Размер потока                            : 186 Мбайт (1%)
Заголовок                                : Original | 2.0
Язык                                     : English
По умолчанию                             : Нет
Принудительно                            : Нет

Текст #1
Идентификатор                            : 14
Формат                                   : UTF-8
Идентификатор кодека                     : S_TEXT/UTF8
Идентификатор кодека/Информация          : UTF-8 Plain Text
Язык                                     : Russian
По умолчанию                             : Нет
Принудительно                            : Нет

Текст #2
Идентификатор                            : 15
Формат                                   : UTF-8
Идентификатор кодека                     : S_TEXT/UTF8
Идентификатор кодека/Информация          : UTF-8 Plain Text
Заголовок                                : 1
Язык                                     : English
По умолчанию                             : Нет
Принудительно                            : Нет

Текст #3
Идентификатор                            : 16
Формат                                   : UTF-8
Идентификатор кодека                     : S_TEXT/UTF8
Идентификатор кодека/Информация          : UTF-8 Plain Text
Заголовок                                : 2
Язык                                     : English
По умолчанию                             : Нет
Принудительно                            : Нет

Текст #4
Идентификатор                            : 17
Формат                                   : UTF-8
Идентификатор кодека                     : S_TEXT/UTF8
Идентификатор кодека/Информация          : UTF-8 Plain Text
Заголовок                                : SDH
Язык                                     : English
По умолчанию                             : Нет
Принудительно                            : Нет

Меню
00:00:00.000                             : en:Simon the Magician
00:07:23.800                             : en:Friends, Countrymen, Russians
00:11:53.201                             : en:The Microchip
00:16:27.503                             : en:Martin De Porres
00:21:14.305                             : en:Bruno Hautenfaust
00:27:32.239                             : en:Cold Fusion Mumbo Jumbo
00:34:09.111                             : en:Thomas More
00:39:29.513                             : en:What's Your Name
00:44:15.815                             : en:An Angel
00:49:20.517                             : en:The Spider and the Fly
00:55:33.482                             : enouble Take
01:00:05.985                             : en:You Found Me
01:05:55.087                             : en:On Thin Ice
01:11:27.890                             : en:Russian Hospitality
01:17:32.892                             : enlus or Minus
01:20:20.993                             : en:A Diversion
01:25:50.196                             : en:My Personal Saint
01:31:42.198                             : en:"Oh, Ye of Little Faith."
01:38:13.801                             : en:Revelation in Red Square
01:42:00.002                             : en:I Know You
01:49:19.413                             : en:Her Biggest Fan
http://img12.lostpic.net/2018/05/30/7ad12635a2854f7ae584c20ba90ff810.th.png http://img12.lostpic.net/2018/05/30/ebd8e994cc83e9127e5d9ff73db26659.th.png http://img12.lostpic.net/2018/05/30/08bf3db2542a90b7603d81cbdea3a7a2.th.png http://img12.lostpic.net/2018/05/30/bf191dd1452015a5942d9f88ef16216a.th.png http://img12.lostpic.net/2018/05/30/01839b3763b6510667ebed728efe2a0e.th.png http://img12.lostpic.net/2018/05/30/6defcc44cbe11f199c098f5f6cc1bdba.th.png http://img12.lostpic.net/2018/05/30/e50bd29cd908b07122f1301e9e858343.th.png http://img12.lostpic.net/2018/05/30/4127e6b1279b6116a8e8b8ab46d9116e.th.png  


Привет, гость
- Запомнить
Регистрация
Информация

Торрент трекер ExKinoRay.TV

Здесь вы можете скачать новые фильмы, сериалы, игры, музыку, софт и многое другое. Большая скорость скачивания на мультитрекерных раздачах. Всё абсолютно бесплатно.