Одинокая белая женщина | Single White Female | 1992 | WEB-DL 1080p | - KORSAR | Open Matte Одобрено администрацией

Участники
  • Раздают3
  • Качают0
  • Просмотров66
  • Скачали0
  • Комментариев0
  • Список файлов1
Залил раздачу
Поблагодарить
Никто
Характеристики
Вес12.44 GB (13,353,742,083)
Залит2020-08-26 20:59:25 Обновлено2020-08-26 22:04:45
Сетевая Нет
   https://a.radikal.ru/a20/1803/8d/0323a36ccadd.gif
Чтобы скачать, необходимо авторизоваться или зарегистрироваться.
Статус: Одобрено администрацией
Хотите видеть детали Раздачи пройдите авторизацию или регистрацию!

Спасибо за понимание...
Просьба отключить блокировщики рекламы на странице скриншотов по адресу: http://3.lostpic.net/, этим Вы поможете существованию проекта. Заранее спасибо!
Общее
Уникальный идентификатор                 : 211154741292802211425800096917512088310 (0x9EDAEC85BA283855AE2DD969EF156AF6)
Полное имя                               : Одинокая.белая.женщина.1992.WEB-DL.1080p.mkv
Формат                                   : Matroska
Версия формата                           : Version 2
Размер файла                             : 12,4 Гбайт
Продолжительность                        : 1 ч. 47 м.
Режим общего битрейта                    : Переменный
Общий поток                              : 16,5 Мбит/сек
Дата кодирования                         : UTC 2018-11-15 21:00:55
Программа кодирования                    : mkvmerge v5.8.0 ('No Sleep / Pillow') built on Sep  2 2012 15:37:04
Библиотека кодирования                   : libebml v1.2.3 + libmatroska v1.3.0

Видео
Идентификатор                            : 1
Формат                                   : AVC
Формат/Информация                        : Advanced Video Codec
Профиль формата                          : High@L4
Настройки формата                        : CABAC / 4 Ref Frames
Параметр CABAC формата                   : Да
Параметр RefFrames формата               : 4 кадра
Идентификатор кодека                     : V_MPEG4/ISO/AVC
Продолжительность                        : 1 ч. 47 м.
Вид битрейта                             : Переменный
Битрейт                                  : 13,9 Мбит/сек
Максимальный битрейт                     : 15,0 Мбит/сек
Ширина                                   : 1920 пикселей
Высота                                   : 1080 пикселей
Соотношение сторон                       : 16:9
Режим частоты кадров                     : Постоянный
Частота кадров                           : 23,976 (24000/1001) кадра/сек
Цветовое пространство                    : YUV
Субдискретизация насыщенности            : 4:2:0
Битовая глубина                          : 8 бит
Тип развёртки                            : Прогрессивная
Бит/(Пиксели*Кадры)                      : 0.279
Размер потока                            : 10,5 Гбайт (84%)
Язык                                     : English
По умолчанию                             : Да
Принудительно                            : Нет
Цветовой диапазон                        : Limited
Основные цвета                           : BT.709
Характеристики трансфера                 : BT.709
Коэффициенты матрицы                     : BT.709

Аудио #1
Идентификатор                            : 2
Формат                                   : AC-3
Формат/Информация                        : Audio Coding 3
Идентификатор кодека                     : A_AC3
Продолжительность                        : 1 ч. 47 м.
Вид битрейта                             : Постоянный
Битрейт                                  : 192 Кбит/сек
Каналы                                   : 2 канала
Расположение каналов                     : Front: L R
Частота                                  : 48,0 КГц
Частота кадров                           : 31,250 кадров/сек (1536 SPF)
Битовая глубина                          : 16 бит
Метод сжатия                             : С потерями
Размер потока                            : 148 Мбайт (2%)
Заголовок                                : DUB
Язык                                     : Russian
По умолчанию                             : Да
Принудительно                            : Нет

Аудио #2
Идентификатор                            : 3
Формат                                   : AC-3
Формат/Информация                        : Audio Coding 3
Идентификатор кодека                     : A_AC3
Продолжительность                        : 1 ч. 47 м.
Вид битрейта                             : Постоянный
Битрейт                                  : 192 Кбит/сек
Каналы                                   : 2 канала
Расположение каналов                     : Front: L R
Частота                                  : 48,0 КГц
Частота кадров                           : 31,250 кадров/сек (1536 SPF)
Битовая глубина                          : 16 бит
Метод сжатия                             : С потерями
Размер потока                            : 148 Мбайт (2%)
Заголовок                                : MVO
Язык                                     : Russian
По умолчанию                             : Нет
Принудительно                            : Нет

Аудио #3
Идентификатор                            : 4
Формат                                   : AC-3
Формат/Информация                        : Audio Coding 3
Идентификатор кодека                     : A_AC3
Продолжительность                        : 1 ч. 47 м.
Вид битрейта                             : Постоянный
Битрейт                                  : 192 Кбит/сек
Каналы                                   : 2 канала
Расположение каналов                     : Front: L R
Частота                                  : 48,0 КГц
Частота кадров                           : 31,250 кадров/сек (1536 SPF)
Битовая глубина                          : 16 бит
Метод сжатия                             : С потерями
Размер потока                            : 148 Мбайт (2%)
Заголовок                                : MVO | НТВ+
Язык                                     : Russian
По умолчанию                             : Нет
Принудительно                            : Нет

Аудио #4
Идентификатор                            : 5
Формат                                   : AC-3
Формат/Информация                        : Audio Coding 3
Идентификатор кодека                     : A_AC3
Продолжительность                        : 1 ч. 47 м.
Вид битрейта                             : Постоянный
Битрейт                                  : 192 Кбит/сек
Каналы                                   : 2 канала
Расположение каналов                     : Front: L R
Частота                                  : 48,0 КГц
Частота кадров                           : 31,250 кадров/сек (1536 SPF)
Битовая глубина                          : 16 бит
Метод сжатия                             : С потерями
Размер потока                            : 148 Мбайт (2%)
Заголовок                                : AVO | А. Михалёв
Язык                                     : Russian
По умолчанию                             : Нет
Принудительно                            : Нет

Аудио #5
Идентификатор                            : 6
Формат                                   : AC-3
Формат/Информация                        : Audio Coding 3
Идентификатор кодека                     : A_AC3
Продолжительность                        : 1 ч. 47 м.
Вид битрейта                             : Постоянный
Битрейт                                  : 192 Кбит/сек
Каналы                                   : 2 канала
Расположение каналов                     : Front: L R
Частота                                  : 48,0 КГц
Частота кадров                           : 31,250 кадров/сек (1536 SPF)
Битовая глубина                          : 16 бит
Метод сжатия                             : С потерями
Размер потока                            : 148 Мбайт (2%)
Заголовок                                : DVO | C.  Визгунов + Женский голос
Язык                                     : Russian
По умолчанию                             : Нет
Принудительно                            : Нет

Аудио #6
Идентификатор                            : 7
Формат                                   : AC-3
Формат/Информация                        : Audio Coding 3
Идентификатор кодека                     : A_AC3
Продолжительность                        : 1 ч. 47 м.
Вид битрейта                             : Постоянный
Битрейт                                  : 192 Кбит/сек
Каналы                                   : 2 канала
Расположение каналов                     : Front: L R
Частота                                  : 48,0 КГц
Частота кадров                           : 31,250 кадров/сек (1536 SPF)
Битовая глубина                          : 16 бит
Метод сжатия                             : С потерями
Размер потока                            : 148 Мбайт (2%)
Заголовок                                : AVO | В. Горчаков
Язык                                     : Russian
По умолчанию                             : Нет
Принудительно                            : Нет

Аудио #7
Идентификатор                            : 8
Формат                                   : AC-3
Формат/Информация                        : Audio Coding 3
Идентификатор кодека                     : A_AC3
Продолжительность                        : 1 ч. 47 м.
Вид битрейта                             : Постоянный
Битрейт                                  : 192 Кбит/сек
Каналы                                   : 2 канала
Расположение каналов                     : Front: L R
Частота                                  : 48,0 КГц
Частота кадров                           : 31,250 кадров/сек (1536 SPF)
Битовая глубина                          : 16 бит
Метод сжатия                             : С потерями
Размер потока                            : 148 Мбайт (2%)
Заголовок                                : AVO | С. Кузнецов
Язык                                     : Russian
По умолчанию                             : Нет
Принудительно                            : Нет

Аудио #8
Идентификатор                            : 9
Формат                                   : AC-3
Формат/Информация                        : Audio Coding 3
Идентификатор кодека                     : A_AC3
Продолжительность                        : 1 ч. 47 м.
Вид битрейта                             : Постоянный
Битрейт                                  : 192 Кбит/сек
Каналы                                   : 2 канала
Расположение каналов                     : Front: L R
Частота                                  : 48,0 КГц
Частота кадров                           : 31,250 кадров/сек (1536 SPF)
Битовая глубина                          : 16 бит
Метод сжатия                             : С потерями
Размер потока                            : 148 Мбайт (2%)
Заголовок                                : AVO | В. Сонькин
Язык                                     : Russian
По умолчанию                             : Нет
Принудительно                            : Нет

Аудио #9
Идентификатор                            : 10
Формат                                   : AC-3
Формат/Информация                        : Audio Coding 3
Идентификатор кодека                     : A_AC3
Продолжительность                        : 1 ч. 47 м.
Вид битрейта                             : Постоянный
Битрейт                                  : 192 Кбит/сек
Каналы                                   : 2 канала
Расположение каналов                     : Front: L R
Частота                                  : 48,0 КГц
Частота кадров                           : 31,250 кадров/сек (1536 SPF)
Битовая глубина                          : 16 бит
Метод сжатия                             : С потерями
Размер потока                            : 148 Мбайт (2%)
Заголовок                                : DVO
Язык                                     : Russian
По умолчанию                             : Нет
Принудительно                            : Нет

Аудио #10
Идентификатор                            : 11
Формат                                   : AC-3
Формат/Информация                        : Audio Coding 3
Идентификатор кодека                     : A_AC3
Продолжительность                        : 1 ч. 47 м.
Вид битрейта                             : Постоянный
Битрейт                                  : 192 Кбит/сек
Каналы                                   : 2 канала
Расположение каналов                     : Front: L R
Частота                                  : 48,0 КГц
Частота кадров                           : 31,250 кадров/сек (1536 SPF)
Битовая глубина                          : 16 бит
Метод сжатия                             : С потерями
Размер потока                            : 148 Мбайт (2%)
Заголовок                                : DVO | AMC
Язык                                     : Ukrainian
По умолчанию                             : Нет
Принудительно                            : Нет

Аудио #11
Идентификатор                            : 12
Формат                                   : AC-3
Формат/Информация                        : Audio Coding 3
Идентификатор кодека                     : A_AC3
Продолжительность                        : 1 ч. 47 м.
Вид битрейта                             : Постоянный
Битрейт                                  : 384 Кбит/сек
Каналы                                   : 2 канала
Расположение каналов                     : Front: L R
Частота                                  : 48,0 КГц
Частота кадров                           : 31,250 кадров/сек (1536 SPF)
Битовая глубина                          : 16 бит
Метод сжатия                             : С потерями
Размер потока                            : 296 Мбайт (4%)
Заголовок                                : Original
Язык                                     : English
По умолчанию                             : Нет
Принудительно                            : Нет

Текст #1
Идентификатор                            : 13
Формат                                   : UTF-8
Идентификатор кодека                     : S_TEXT/UTF8
Идентификатор кодека/Информация          : UTF-8 Plain Text
Язык                                     : Russian
По умолчанию                             : Нет
Принудительно                            : Нет

Текст #2
Идентификатор                            : 14
Формат                                   : UTF-8
Идентификатор кодека                     : S_TEXT/UTF8
Идентификатор кодека/Информация          : UTF-8 Plain Text
Язык                                     : English
По умолчанию                             : Нет
Принудительно                            : Нет

Меню
00:00:00.000                             : ru:01. Начало
00:06:13.937                             : ru:02. Грэхем и Алли
00:08:58.018                             : ru:03. Жалость к себе
00:12:01.743                             : ru:04. Хендра Карлсон
00:15:12.392                             : ru:05. Приезд Хеди
00:16:20.585                             : ru:06. Подружиться
00:20:32.253                             : ru:07. Приезд Сэма
00:24:31.909                             : ru:08. Просьба об одолжении
00:28:32.900                             : ru:09. Улаживая ссору
00:28:55.672                             : ru:10. "Где ты была?"
00:34:15.951                             : ru:11. Впечатленный клиент
00:38:19.277                             : ru:12. Приглашение на завтрак
00:42:24.848                             : ru:13. Утешая Хеди
00:44:05.448                             : ru:14. Опоздание
00:45:42.962                             : ru:15. Проявленный интерес
00:48:38.679                             : ru:16. "Мужчины - Свиньи"
00:51:23.970                             : ru:17. Сюрприз для Алли
00:52:35.416                             : ru:18. Улики
00:55:48.275                             : ru:19. Алли следом за Алли
00:59:11.937                             : ru:20. Хороший совет
01:01:57.644                             : ru:21. Грэхем встречает Хеди
01:04:33.008                             : ru:22. Искупить вину
01:09:18.585                             : ru:23. Отель "Асертон"
01:15:22.907                             : ru:24. Выезд Хеди
01:18:55.203                             : ru:25. Объяснение происшествия
01:24:12.228                             : ru:26. Квартира Грэхема
01:25:58.167                             : ru:27. Никогда одинаковая
01:27:26.755                             : ru:28. Срыв Хеди
01:30:07.082                             : ru:29. Просроченный платеж
01:31:51.812                             : ru:30. Планируя побег
01:32:48.452                             : ru:31. Митч и Хеди
01:35:52.344                             : ru:32. записка о самоубийстве
01:38:18.865                             : ru:33. Решающий поединок
01:41:26.678                             : ru:34. Игра в кошки-мышки
01:44:36.701                             : ru:35. Финальные титры
https://img11.lostpic.net/2018/11/07/8db9a0946736b4a18fab70d5709e57cf.th.png https://img11.lostpic.net/2018/11/07/159246ab7ca6d4d885da917f20eaf672.th.png https://img11.lostpic.net/2018/11/07/24f28f4c2eb0b4d5eca566e34ebb71e0.th.png https://img11.lostpic.net/2018/11/07/0827be75c69def6769dcb66a16e7017e.th.png https://img11.lostpic.net/2018/11/07/71a1cfc466b0f65e6299043bbd4e871e.th.png https://img11.lostpic.net/2018/11/07/a5f27e33494eab6b0c10cc88c2c1c4f1.th.png https://img11.lostpic.net/2018/11/07/123bcf789eb5e7e7d8bf91130eb81dfe.th.png https://img11.lostpic.net/2018/11/07/4e7dd480ef3e0b2176c19160c66ef08f.th.png  


Привет, гость
- Запомнить
Регистрация
Информация

Торрент трекер ExKinoRay.TV

Здесь вы можете скачать новые фильмы, сериалы, игры, музыку, софт и многое другое. Большая скорость скачивания на мультитрекерных раздачах. Всё абсолютно бесплатно.