Последний звёздный боец | The Last Starfighter | 1984 | BDRip (720p) | Remastered | AVO - KORSAR Одобрено администрацией

Участники
  • Раздают4
  • Качают0
  • Просмотров47
  • Скачали7
  • Комментариев0
  • Список файлов1
Залил раздачу
Поблагодарить
Характеристики
Вес7.74 GB (8,307,587,934)
Залит2021-02-12 19:42:05 Обновлено2021-02-12 19:55:02
Сетевая Нет
Чтобы скачать, необходимо авторизоваться или зарегистрироваться.
Статус: Одобрено администрацией
Хотите видеть детали Раздачи пройдите авторизацию или регистрацию!

Спасибо за понимание...
Просьба отключить блокировщики рекламы на странице скриншотов по адресу: http://3.lostpic.net/, этим Вы поможете существованию проекта. Заранее спасибо!
****************************************************************
x264 [info]: frame I:1006  Avg QP:17.26  size:123414
x264 [info]: frame P:26827 Avg QP:18.80  size: 80748
x264 [info]: frame B:116740 Avg QP:21.05  size: 44913
x264 [info]: consecutive B-frames:  1.8%  1.5%  4.6% 12.8% 13.7% 34.3%  9.1%  4.8%  4.3%  5.0%  2.9%  1.6%  1.7%  1.5%  0.4%
****************************************************************
Формат                                   : Matroska
Версия формата                           : Version 2
Размер файла                             : 7,74 Гбайт
Продолжительность                        : 1 ч. 40 м.
Общий поток                              : 11,0 Мбит/сек
Название фильма                          : = Последний звёздный боец / The Last Starfighter (1984) BDRip 720 - KORSAR =
Дата кодирования                         : UTC 2021-01-26 22:01:57
Программа кодирования                    : mkvmerge v5.8.0 ('No Sleep / Pillow') built on Sep  2 2012 15:37:04
Библиотека кодирования                   : libebml v1.2.3 + libmatroska v1.3.0
Attachment                               : Yes

Видео
Идентификатор                            : 1
Формат                                   : AVC
Формат/Информация                        : Advanced Video Codec
Профиль формата                          : High@L4.1
Параметр CABAC формата                   : Да
Параметр ReFrames формата                : 12 кадров
Идентификатор кодека                     : V_MPEG4/ISO/AVC
Продолжительность                        : 1 ч. 40 м.
Битрейт                                  : 10000 Кбит/сек
Ширина                                   : 1280 пикселей
Высота                                   : 546 пикселей
Соотношение сторон                       : 2,35:1
Режим частоты кадров                     : Постоянный
Частота кадров                           : 23,976 кадра/сек
Цветовое пространство                    : YUV
Субдискретизация насыщенности            : 4:2:0
Битовая глубина                          : 8 бит
Тип развёртки                            : Прогрессивная
Бит/(Пиксели*Кадры)                      : 0.597
Размер потока                            : 6,86 Гбайт (89%)
Заголовок                                : Последний звёздный боец / The Last Starfighter (1984) BDRip 720 - KORSAR
Библиотека кодирования                   : x264 core 161 r3027 4121277
Настройки программы                      : cabac=1 / ref=12 / deblock=1:-3:-2 / analyse=0x3:0x113 / me=umh / subme=11 / psy=1 / psy_rd=1.00:0.00 / mixed_ref=1 / me_range=48 / chroma_me=1 / trellis=2 / 8x8dct=1 / cqm=0 / deadzone=21,11 / fast_pskip=0 / chroma_qp_offset=-2 / threads=12 / lookahead_threads=3 / sliced_threads=0 / nr=0 / decimate=0 / interlaced=0 / bluray_compat=0 / constrained_intra=0 / bframes=14 / b_pyramid=2 / b_adapt=2 / b_bias=0 / direct=3 / weightb=1 / open_gop=0 / weightp=2 / keyint=240 / keyint_min=23 / scenecut=40 / intra_refresh=0 / rc_lookahead=60 / rc=2pass / mbtree=0 / bitrate=10000 / ratetol=1.0 / qcomp=0.66 / qpmin=0 / qpmax=69 / qpstep=4 / cplxblur=20.0 / qblur=0.5 / vbv_maxrate=50000 / vbv_bufsize=62500 / nal_hrd=none / filler=0 / ip_ratio=1.25 / pb_ratio=1.30 / aq=3:0.90
Язык                                     : English
Default                                  : Да
Forced                                   : Нет
Основные цвета                           : BT.709
Характеристики трансфера                 : BT.709
Коэффициенты матрицы                     : BT.709

Аудио #1
Идентификатор                            : 2
Формат                                   : AC-3
Формат/Информация                        : Audio Coding 3
Расширение режима                        : CM (complete main)
Параметр Endianness формата              : Big
Идентификатор кодека                     : A_AC3
Продолжительность                        : 1 ч. 40 м.
Вид битрейта                             : Постоянный
Битрейт                                  : 192 Кбит/сек
Каналы                                   : 2 канала
Расположение каналов                     : Front: L R
Частота                                  : 48,0 КГц
Битовая глубина                          : 16 бит
Метод сжатия                             : С потерями
Размер потока                            : 138 Мбайт (2%)
Заголовок                                : AVO ( Гаврилов )
Язык                                     : Russian
Default                                  : Да
Forced                                   : Нет

Аудио #2
Идентификатор                            : 3
Формат                                   : AC-3
Формат/Информация                        : Audio Coding 3
Расширение режима                        : CM (complete main)
Параметр Endianness формата              : Big
Идентификатор кодека                     : A_AC3
Продолжительность                        : 1 ч. 40 м.
Вид битрейта                             : Постоянный
Битрейт                                  : 192 Кбит/сек
Каналы                                   : 2 канала
Расположение каналов                     : Front: L R
Частота                                  : 48,0 КГц
Битовая глубина                          : 16 бит
Метод сжатия                             : С потерями
Размер потока                            : 138 Мбайт (2%)
Заголовок                                : AVO ( Марченко )
Язык                                     : Russian
Default                                  : Нет
Forced                                   : Нет

Аудио #3
Идентификатор                            : 4
Формат                                   : AC-3
Формат/Информация                        : Audio Coding 3
Расширение режима                        : CM (complete main)
Параметр Endianness формата              : Big
Идентификатор кодека                     : A_AC3
Продолжительность                        : 1 ч. 40 м.
Вид битрейта                             : Постоянный
Битрейт                                  : 640 Кбит/сек
Каналы                                   : 6 каналов
Расположение каналов                     : Front: L C R, Side: L R, LFE
Частота                                  : 48,0 КГц
Битовая глубина                          : 16 бит
Метод сжатия                             : С потерями
Размер потока                            : 460 Мбайт (6%)
Язык                                     : English
Default                                  : Нет
Forced                                   : Нет

Текст #1
Идентификатор                            : 5
Формат                                   : UTF-8
Идентификатор кодека                     : S_TEXT/UTF8
Идентификатор кодека/Информация          : UTF-8 Plain Text
Язык                                     : Russian
Default                                  : Нет
Forced                                   : Нет

Текст #2
Идентификатор                            : 6
Формат                                   : UTF-8
Идентификатор кодека                     : S_TEXT/UTF8
Идентификатор кодека/Информация          : UTF-8 Plain Text
Язык                                     : English
Default                                  : Нет
Forced                                   : Нет

Меню
00:00:00.000                             : en:Chapter 01
00:08:07.236                             : en:Chapter 02
00:18:03.540                             : en:Chapter 03
00:26:19.786                             : en:Chapter 04
00:35:43.724                             : en:Chapter 05
00:43:09.378                             : en:Chapter 06
00:48:40.751                             : en:Chapter 07
00:57:34.284                             : en:Chapter 08
01:07:34.467                             : en:Chapter 09
01:16:27.165                             : en:Chapter 10
01:26:00.655                             : en:Chapter 11
01:29:15.099                             : en:Chapter 12
https://img11.lostpic.net/2021/01/28/a9932f017d8f6b6eaccb97dcd6eb5fc4.th.png https://img11.lostpic.net/2021/01/28/4d144a0f91f6a3b49c761febf2befa14.th.png https://img11.lostpic.net/2021/01/28/8e72d69f00708928e806dc1f73ec0e27.th.png https://img11.lostpic.net/2021/01/28/da3b0f89c88ef98f1a6f8f1e0a334180.th.png
https://img11.lostpic.net/2021/01/28/0a3ca62e67e9fafc22c19619faff821f.th.png https://img11.lostpic.net/2021/01/28/ce7e51a89be0ec4bcb71cdda2d9cc327.th.png https://img11.lostpic.net/2021/01/28/4354de67560ac9cb5630380bfc034bb5.th.png https://img11.lostpic.net/2021/01/28/2efc9eb80def461071103b4322112c4a.th.png
http://korsar.tv/images/Banner-Korsar.gif http://korsar.tv/img/VKontakte.png


Привет, гость
- Запомнить
Регистрация
Информация

Торрент трекер ExKinoRay.TV

Здесь вы можете скачать новые фильмы, сериалы, игры, музыку, софт и многое другое. Большая скорость скачивания на мультитрекерных раздачах. Всё абсолютно бесплатно.